<?xml version="1.0" standalone="no"?>
<!DOCTYPE svg PUBLIC "-//W3C//DTD SVG 1.1//EN" "http://www.w3.org/Graphics/SVG/1.1/DTD/svg11.dtd" >
<svg>
<metadata>
Created by FontForge 20090914 at Wed Oct  1 04:40:23 2014
 By www-data
</metadata>
<defs>
<font id="DINAlternate-Regular" horiz-adv-x="1085" >
  <font-face 
    font-family="DIN Alternate"
    font-weight="400"
    font-stretch="normal"
    units-per-em="2048"
    panose-1="2 2 5 0 0 0 0 0 0 0"
    ascent="1638"
    descent="-410"
    x-height="1008"
    cap-height="1458"
    bbox="-213 -463 2284 2018"
    underline-thickness="51"
    underline-position="-114"
    unicode-range="U+0020-U+2219"
  />
<missing-glyph horiz-adv-x="1536" 
d="M256 0v1280h1024v-1280h-1024zM1247 33v1214h-958v-1214h958z" />
    <glyph glyph-name=".notdef" horiz-adv-x="1536" 
d="M256 0v1280h1024v-1280h-1024zM1247 33v1214h-958v-1214h958z" />
    <glyph glyph-name="space" unicode=" " horiz-adv-x="510" 
 />
    <glyph glyph-name="exclam" unicode="!" horiz-adv-x="647" 
d="M442 1458l-26 -1048h-119l-27 1048h172zM459 96c0 -29.333 -9.66797 -53.667 -29.001 -73s-44 -29 -74 -29c-28.667 0 -53.167 9.83301 -73.5 29.5s-30.5 43.834 -30.5 72.501c0 29.333 10.167 53.833 30.5 73.5s44.833 29.5 73.5 29.5c13.333 0 26.833 -2.66699 40.5 -8
s24.834 -12.333 33.501 -21s15.667 -19.834 21 -33.501s8 -27.167 8 -40.5z" />
    <glyph glyph-name="quotedbl" unicode="&#x22;" horiz-adv-x="866" 
d="M686 1110h-162v348h162v-348zM342 1110h-162v348h162v-348z" />
    <glyph glyph-name="numbersign" unicode="#" horiz-adv-x="1337" 
d="M1233 885h-197l-47 -289h182v-131h-202l-74 -465h-152l74 465h-328l-71 -465h-152l74 465h-182v131h204l48 289h-189v135h207l70 440h153l-71 -440h325l70 440h149l-69 -440h178v-135zM885 885h-326l-47 -289h326z" />
    <glyph glyph-name="dollar" unicode="$" horiz-adv-x="1221" 
d="M1106 401c0 -58.667 -10.167 -111.832 -30.5 -159.499s-50.333 -89.5 -90 -125.5s-87 -64.5 -142 -85.5s-116.5 -33.833 -184.5 -38.5v-225h-122v221c-96 4 -179 21.167 -249 51.5s-137.333 77.166 -202 140.499l107 107
c52.667 -52.667 106.834 -91.334 162.501 -116.001s118.834 -38.667 189.501 -42v543l-41 4c-52.667 4.66699 -101.834 17.334 -147.501 38.001s-85.167 44.667 -118.5 72c-75.333 67.333 -113 158.333 -113 273c0 76.667 16.5 144.667 49.5 204s80.167 106.5 141.5 141.5
s135 56.167 221 63.5v183h122v-183c78 -4 147 -18.667 207 -44s118 -63 174 -113l-100 -101c-42.667 38 -86.167 67 -130.5 87s-96.5 32 -156.5 36v-530l64 -10c44.667 -8 82.667 -16.5 114 -25.5s59.666 -20 84.999 -33s47 -27.833 65 -44.5
c40 -33.333 70.833 -74.5 92.5 -123.5s32.5 -104.167 32.5 -165.5zM545 817.002l-0.000976562 515.999c-57.333 -5.33301 -105.666 -19.333 -144.999 -42s-69.333 -53.667 -90 -93s-31 -83.666 -31 -132.999c0 -74.667 21.667 -130.667 65 -168c50 -41.333 117 -68 201 -80z
M949.999 397.001c0 80.667 -23.6689 141.667 -71.002 183c-28.667 25.333 -57.667 42 -87 50s-75.666 16.333 -138.999 25v-526c92.667 6 165.334 32.667 218.001 80s79 110 79 188z" />
    <glyph glyph-name="percent" unicode="%" horiz-adv-x="1706" 
d="M1575 262c0 -82.667 -26.166 -149.332 -78.499 -199.999s-118.5 -76 -198.5 -76c-52.667 0 -100 11.333 -142 34s-74.833 55 -98.5 97s-35.5 90.333 -35.5 145v215c0 42 6.66699 79.667 20 113s32.666 62.666 57.999 87.999s55 44.333 89 57s70.333 19 109 19
c80 0 146.167 -25.5 198.5 -76.5s78.5 -117.833 78.5 -200.5v-215zM1257 1458l-684 -1458h-122l684 1458h122zM686.001 981.002c0 -81.333 -26.001 -147.333 -78.001 -198s-118 -76 -198 -76c-80.667 0 -147 25.167 -199 75.5s-78 116.5 -78 198.5v215
c0 54.667 11.833 103 35.5 145s56.5 74.5 98.5 97.5s89.667 34.5 143 34.5c80.667 0 146.834 -25.5 198.501 -76.5s77.5 -117.833 77.5 -200.5v-215zM1458 266.002v207c0 56.667 -13 100.5 -39 131.5s-66.333 46.5 -121 46.5c-106 0 -159 -59.333 -159 -178v-207
c0 -118.667 53 -178 159 -178c54 0 94.167 15.667 120.5 47s39.5 75 39.5 131zM569 985.002v207c0 56.667 -13 100.5 -39 131.5s-66 46.5 -120 46.5c-106.667 0 -160 -59.333 -160 -178v-207c0 -117.333 53.333 -176 160 -176c54 0 94 15.333 120 46s39 74 39 130z" />
    <glyph glyph-name="ampersand" unicode="&#x26;" horiz-adv-x="1513" 
d="M1374 0l-193.999 0.00195312l-131 160c-122.667 -114.667 -266.334 -172 -431.001 -172c-92 0 -172.833 17.5 -242.5 52.5s-123.334 85 -161.001 150s-56.5 138.833 -56.5 221.5c0 97.333 26.833 177.333 80.5 240s131.834 128 234.501 196
c-49.333 59.333 -88 112.833 -116 160.5s-42 99.834 -42 156.501c0 57.333 13.833 109.166 41.5 155.499s66 82.833 115 109.5s104.167 40 165.5 40c59.333 0 113.333 -13.5 162 -40.5s86.667 -64 114 -111s41 -98.833 41 -155.5c0 -98.667 -53.667 -185.334 -161 -260.001
l-51.5 -34.5l-57.5 -39.5l373 -448c30 45.333 51 92.166 63 140.499s18.333 112.833 19 193.5h147c-2 -192 -47 -341 -135 -447zM809.001 1163c0 32.667 -7.5 62.334 -22.5 89.001s-35.667 47.5 -62 62.5s-55.5 22.5 -87.5 22.5c-50 0 -90.5 -15.833 -121.5 -47.5
s-46.5 -72.5 -46.5 -122.5c0 -31.333 9.33301 -63.833 28 -97.5s53 -80.834 103 -141.501l39.5 26.5l38.5 26.5c42 29.333 74.333 57.5 97 84.5s34 59.5 34 97.5zM961.001 266.002l-401.999 483.998c-56.667 -39.333 -101.334 -72.666 -134.001 -99.999
s-60.167 -60.333 -82.5 -99s-33.5 -83.667 -33.5 -135c0 -56.667 13 -107.167 39 -151.5s62.333 -78.666 109 -102.999s99.667 -36.5 159 -36.5c125.333 0 240.333 47 345 141z" />
    <glyph glyph-name="quotesingle" unicode="'" horiz-adv-x="522" 
d="M342 1110h-162v348h162v-348z" />
    <glyph glyph-name="parenleft" unicode="(" horiz-adv-x="610" 
d="M479 -92l-99.9971 -101l-69.5 70.5c-12.333 13 -25.833 29 -40.5 48s-27.334 38.5 -38.001 58.5c-17.333 32.667 -28.833 66 -34.5 100s-8.5 71 -8.5 111v1069c0 86.667 14.333 157 43 211c17.333 30.667 35.166 56.5 53.499 77.5s49.833 53.833 94.5 98.5l100 -101
c-36 -36 -60.667 -61.833 -74 -77.5s-25.333 -34.167 -36 -55.5c-22 -42.667 -33 -98 -33 -166v-1044c0 -68 11 -123.333 33 -166c9.33301 -18.667 19.166 -34.5 29.499 -47.5s22.833 -26.833 37.5 -41.5z" />
    <glyph glyph-name="parenright" unicode=")" horiz-adv-x="610" 
d="M420 195c0 -91.333 -13.6689 -161.667 -41.002 -211c-16 -30 -33.5 -55.833 -52.5 -77.5s-50.833 -54.834 -95.5 -99.501l-104 105l46.5 46c11 10.667 22.667 23.5 35 38.5s22.833 31.167 31.5 48.5c18.667 38 28 92 28 162v1044c0 70 -9.33301 124 -28 162
c-10 21.333 -23.667 41.5 -41 60.5s-41.333 43.167 -72 72.5l104 105c44.667 -44.667 76.834 -78.167 96.501 -100.5s36.834 -47.5 51.501 -75.5c17.333 -30.667 28.5 -62.667 33.5 -96s7.5 -71.666 7.5 -114.999v-1069z" />
    <glyph glyph-name="asterisk" unicode="*" horiz-adv-x="971" 
d="M834 967l-58 -101l-239 146l8 -281h-119l8 281l-237 -146l-60 101l246 133l-246 135l60 98l237 -145l-8 280h119l-8 -280l239 145l58 -98l-246 -135z" />
    <glyph glyph-name="plus" unicode="+" horiz-adv-x="1069" 
d="M963 479h-359v-360h-137v360h-361v137h361v357h137v-357h359v-137z" />
    <glyph glyph-name="comma" unicode="," horiz-adv-x="541" 
d="M360 -133l-180 -162v475h180v-313z" />
    <glyph glyph-name="hyphen" unicode="-" horiz-adv-x="872" 
d="M717 483h-561v138h561v-138z" />
    <glyph glyph-name="period" unicode="." horiz-adv-x="557" 
d="M395 111c0 -31.333 -11.335 -58.6641 -34.002 -81.9971s-50 -35 -82 -35c-31.333 0 -58.666 11.667 -81.999 35s-35 50.666 -35 81.999c0 32 11.667 59.333 35 82s50.666 34 81.999 34c20.667 0 39.834 -5.33301 57.501 -16s31.834 -24.834 42.501 -42.501
s16 -36.834 16 -57.501z" />
    <glyph glyph-name="slash" unicode="/" horiz-adv-x="727" 
d="M729 1610l-584 -1762h-145l584 1762h145z" />
    <glyph glyph-name="zero" unicode="0" horiz-adv-x="1069" 
d="M934 389c0 -79.333 -17.168 -149.333 -51.501 -210s-82.166 -107.667 -143.499 -141s-129.333 -50 -204 -50s-142.834 16.833 -204.501 50.5s-109.667 80.667 -144 141s-51.5 130.166 -51.5 209.499v445c0 58.667 9.83301 112.834 29.5 162.501s48.334 92.667 86.001 129
s80.5 63.666 128.5 81.999s100 27.5 156 27.5c56.667 0 109 -9.33301 157 -28s90.333 -45.667 127 -81s65 -78.166 85 -128.499s30 -104.833 30 -163.5v-445zM785.999 397l0.00195312 428c0 53.333 -9.83301 101.166 -29.5 143.499s-48.334 75.5 -86.001 99.5
s-82.834 36 -135.501 36c-53.333 0 -98.833 -12 -136.5 -36s-66.334 -57.167 -86.001 -99.5s-29.5 -90.166 -29.5 -143.499v-428c0 -52.667 10 -100.334 30 -143.001s48.833 -75.834 86.5 -99.501s82.834 -35.5 135.501 -35.5c52 0 96.833 11.833 134.5 35.5
s66.5 56.834 86.5 99.501s30 90.334 30 143.001z" />
    <glyph glyph-name="one" unicode="1" horiz-adv-x="764" 
d="M524 0h-147v1059l-273 -240v168l273 236h147v-1223z" />
    <glyph glyph-name="two" unicode="2" horiz-adv-x="1036" 
d="M922 0l-837.998 0.000976562v131l514 496c92.667 90.667 139 182 139 274c0 70.667 -23.333 129 -70 175s-106.667 69 -180 69c-70 0 -129.333 -23 -178 -69s-73 -105.667 -73 -179h-148c0 71.333 17.167 135.833 51.5 193.5s82.166 103 143.499 136
s129.333 49.5 204 49.5c78 0 147.333 -16.333 208 -49s107.5 -77.334 140.5 -134.001s49.5 -120 49.5 -190c0 -68 -16.333 -130.667 -49 -188s-79.334 -115.333 -140.001 -174l-417 -410h643v-131z" />
    <glyph glyph-name="three" unicode="3" horiz-adv-x="1055" 
d="M934 160c0 -86.667 -18.833 -161.167 -56.5 -223.5s-89.167 -109.333 -154.5 -141s-137.666 -47.5 -216.999 -47.5c-121.333 0 -221.5 32.833 -300.5 98.5s-121.5 161.167 -127.5 286.5h147c6.66699 -86 36.334 -149.5 89.001 -190.5s116.667 -61.5 192 -61.5
c53.333 0 101.166 11.167 143.499 33.5s75.666 54.5 99.999 96.5s36.5 92.333 36.5 151c0 91.333 -23.167 161.166 -69.5 209.499s-118.5 72.5 -216.5 72.5h-29v129h29c87.333 0 152.5 23 195.5 69s64.5 111.333 64.5 196c0 42.667 -6.16699 80.5 -18.5 113.5
s-30.333 61 -54 84s-51 40.167 -82 51.5s-64.167 17 -99.5 17c-51.333 0 -95.666 -9.5 -132.999 -28.5s-66.833 -46.667 -88.5 -83s-35.167 -79.833 -40.5 -130.5h-148c6 78 27.333 144.833 64 200.5s85.167 98.334 145.5 128.001s127.166 44.5 200.499 44.5
c78 0 147.5 -16.5 208.5 -49.5s108.333 -79.333 142 -139s50.5 -128.5 50.5 -206.5c0 -157.333 -65.333 -265.333 -196 -324c148.667 -55.333 223 -174 223 -356z" />
    <glyph glyph-name="four" unicode="4" horiz-adv-x="1108" 
d="M1026 61h-186v-313h-146v313h-620v136l540 1091h158l-543 -1091h465v419h146v-419h186v-136z" />
    <glyph glyph-name="five" unicode="5" horiz-adv-x="1059" 
d="M928 246c0 -88.667 -7.66699 -163.5 -23 -224.5s-46.666 -115.167 -93.999 -162.5c-72.667 -72.667 -169.667 -109 -291 -109c-62.667 0 -119.167 9.5 -169.5 28.5s-91.5 44.5 -123.5 76.5c-60 62 -94 146.667 -102 254h147c20 -152 102.667 -228 248 -228
c74.667 0 134.667 22.667 180 68c24.667 24.667 42.5 52.667 53.5 84s18.167 62.833 21.5 94.5s5 71.167 5 118.5c0 107.333 -17 193.166 -51 257.499s-98.667 96.5 -194 96.5c-62.667 0 -114.834 -12.667 -156.501 -38s-70.167 -60.333 -85.5 -105h-133v766h737v-131h-604
v-463c60 66.667 147.333 100 262 100c106.667 0 190.667 -30.667 252 -92c47.333 -47.333 79.333 -103.666 96 -168.999s25 -139.333 25 -222z" />
    <glyph glyph-name="six" unicode="6" horiz-adv-x="1079" 
d="M975 451c0 -86.667 -17.6689 -165.667 -53.002 -237s-86.166 -126.833 -152.499 -166.5s-142.5 -59.5 -228.5 -59.5c-87.333 0 -164.166 18.5 -230.499 55.5s-117.333 90 -153 159s-53.5 147.5 -53.5 235.5c0 120 35.667 242.333 107 367l389 686h156l-369 -633
c26.667 14 54 24 82 30s60 9 96 9c62.667 0 119.334 -10.833 170.001 -32.5s93.667 -52.167 129 -91.5s62.666 -86.5 81.999 -141.5s29 -115.167 29 -180.5zM826.998 442c0 47.333 -6.33398 90.833 -19.001 130.5s-31 74.667 -55 105s-54 54 -90 71s-77.333 25.5 -124 25.5
c-58 0 -108.5 -13.667 -151.5 -41s-76.333 -66 -100 -116s-35.5 -108.333 -35.5 -175c0 -99.333 26.167 -179 78.5 -239s121.833 -90 208.5 -90s156.334 30 209.001 90s79 139.667 79 239z" />
    <glyph glyph-name="seven" unicode="7" horiz-adv-x="1028" 
d="M956 1092l-596 -1344h-155l594 1344h-561v-230h-146v361h864v-131z" />
    <glyph glyph-name="eight" unicode="8" horiz-adv-x="1102" 
d="M981 401c0 -78.667 -18.832 -149.832 -56.499 -213.499s-89.5 -112.834 -155.5 -147.501s-138.667 -52 -218 -52s-152 17.333 -218 52s-117.833 83.834 -155.5 147.501s-56.5 134.834 -56.5 213.501c0 153.333 73 271.666 219 354.999
c-60.667 35.333 -108 80.166 -142 134.499s-51 117.166 -51 188.499c0 55.333 10 107.333 30 156s48.167 90.334 84.5 125.001s79.333 61.667 129 81s103.167 29 160.5 29s110.833 -9.66699 160.5 -29s92.667 -46.5 129 -81.5s64.333 -76.5 84 -124.5s29.5 -100 29.5 -156
c0 -73.333 -16.833 -136.833 -50.5 -190.5s-80.834 -97.834 -141.501 -132.501c146 -83.333 219 -201.666 219 -354.999zM807.001 1077c0 49.333 -11 94 -33 134s-52.5 71.333 -91.5 94s-82.833 34 -131.5 34c-49.333 0 -93.5 -11.333 -132.5 -34s-69.333 -54 -91 -94
s-32.5 -84.667 -32.5 -134c0 -50 10.833 -94.833 32.5 -134.5s52.167 -70.5 91.5 -92.5s83.333 -33 132 -33c48 0 91.667 11 131 33s70 52.833 92 92.5s33 84.5 33 134.5zM834.001 403.002c0 52 -12.499 100.001 -37.499 144.001s-59.167 78.5 -102.5 103.5
s-91 37.5 -143 37.5c-51.333 0 -98.833 -12.5 -142.5 -37.5s-78 -59.333 -103 -103s-37.5 -91.834 -37.5 -144.501c0 -79.333 27.167 -146.5 81.5 -201.5s121.5 -82.5 201.5 -82.5c39.333 0 76 7 110 21s64.167 34.167 90.5 60.5s46.666 56.833 60.999 91.5
s21.5 71.667 21.5 111z" />
    <glyph glyph-name="nine" unicode="9" horiz-adv-x="1079" 
d="M975 784c0 -119.333 -35.668 -241.333 -107.001 -366l-389 -686h-155l368 633c-49.333 -26 -108.666 -39 -177.999 -39c-122 0 -220.833 41.833 -296.5 125.5s-113.5 190.5 -113.5 320.5c0 64.667 9.83301 125.334 29.5 182.001s48.834 106.5 87.501 149.5
s84.834 75.667 138.501 98s113.5 33.5 179.5 33.5c87.333 0 164.166 -18.667 230.499 -56s117.166 -90.333 152.499 -159s53 -147.334 53 -236.001zM826.999 780c0 66.667 -11.668 124.834 -35.001 174.501s-56.5 88 -99.5 115s-93.5 40.5 -151.5 40.5
c-86 0 -155.667 -30.333 -209 -91s-80 -140.334 -80 -239.001c0 -60.667 11.167 -116.334 33.5 -167.001s55.333 -90.667 99 -120s95.834 -44 156.501 -44c58 0 108.5 13.833 151.5 41.5s76.167 66.334 99.5 116.001s35 107.5 35 173.5z" />
    <glyph glyph-name="colon" unicode=":" horiz-adv-x="612" 
d="M451 707c0 -32 -11.5 -59.499 -34.5 -82.499s-50.5 -34.5 -82.5 -34.5c-31.333 0 -58.666 11.667 -81.999 35s-35 50.666 -35 81.999c0 32 11.667 59.333 35 82s50.666 34 81.999 34c32 0 59.5 -11.167 82.5 -33.5s34.5 -49.833 34.5 -82.5zM451 111.001
c0 -32 -11.5 -59.499 -34.5 -82.499s-50.5 -34.5 -82.5 -34.5c-31.333 0 -58.666 11.667 -81.999 35s-35 50.666 -35 81.999c0 32 11.667 59.333 35 82s50.666 34 81.999 34c32 0 59.5 -11.167 82.5 -33.5s34.5 -49.833 34.5 -82.5z" />
    <glyph glyph-name="semicolon" unicode=";" horiz-adv-x="608" 
d="M451 707c0 -32 -11.5 -59.499 -34.5 -82.499s-50.5 -34.5 -82.5 -34.5c-31.333 0 -58.666 11.667 -81.999 35s-35 50.666 -35 81.999c0 32 11.667 59.333 35 82s50.666 34 81.999 34c32 0 59.5 -11.167 82.5 -33.5s34.5 -49.833 34.5 -82.5zM424 -132.999l-180 -162v475
h180v-313z" />
    <glyph glyph-name="less" unicode="&#x3c;" horiz-adv-x="2103" 
d="M1870 430l-817 -817l-817 817v193l745 -748v1616h143v-1616l746 748v-193z" />
    <glyph glyph-name="equal" unicode="=" horiz-adv-x="1069" 
d="M963 655h-857v138h857v-138zM963 309h-857v135h857v-135z" />
    <glyph glyph-name="greater" unicode="&#x3e;" horiz-adv-x="2103" 
d="M1870 481l-746 748v-1616h-143v1616l-745 -748v193l817 817l817 -817v-193z" />
    <glyph glyph-name="question" unicode="?" horiz-adv-x="1018" 
d="M924 1098c0 -44 -7.99902 -85.4971 -23.999 -124.497s-39 -80.167 -69 -123.5l-167 -242c-24.667 -36.667 -37 -76.334 -37 -119.001v-79h-148v82c0 38.667 5.33301 72.667 16 102s26.667 59.333 48 90l166 240c21.333 31.333 37.833 60.166 49.5 86.499
s17.5 55.5 17.5 87.5c0 44 -9.83301 84.5 -29.5 121.5s-47.334 66.167 -83.001 87.5s-76.5 32 -122.5 32c-70.667 0 -128 -23.833 -172 -71.5s-66 -104.834 -66 -171.501h-147c0 52 9.66699 100.833 29 146.5s46.333 85.5 81 119.5s75.5 60.5 122.5 79.5
s97.833 28.5 152.5 28.5s105.167 -9 151.5 -27s86.5 -43.167 120.5 -75.5s61 -71.333 81 -117s30 -96.5 30 -152.5zM653.001 96.0029c0 -29.333 -9.66797 -53.665 -29.001 -72.998s-43.666 -29 -72.999 -29s-53.666 9.66699 -72.999 29s-29 43.666 -29 72.999
c0 30 9.66699 54.667 29 74s43.666 29 72.999 29c14 0 27.5 -2.66699 40.5 -8s23.833 -12.333 32.5 -21s15.667 -19.834 21 -33.501s8 -27.167 8 -40.5z" />
    <glyph glyph-name="at" unicode="@" horiz-adv-x="1460" 
d="M1313 -2l-142.001 2.00195v113c-33.333 -43.333 -71.833 -75.333 -115.5 -96s-96.5 -31 -158.5 -31c-57.333 0 -110.333 11 -159 33s-88.667 52.667 -120 92c-34 42.667 -57.5 92 -70.5 148s-19.5 132 -19.5 228c0 64.667 2.83301 119.5 8.5 164.5s14.667 84.667 27 119
s28.5 64.833 48.5 91.5c30.667 40.667 70.834 72 120.501 94s103.834 33 162.501 33c113.333 0 204.666 -43 273.999 -129v160c0 54.667 -6.16699 100.167 -18.5 136.5s-32.5 68.5 -60.5 96.5c-54.667 54.667 -130.667 82 -228 82h-266c-94.667 0 -169 -27.333 -223 -82
c-21.333 -20 -37.833 -40.667 -49.5 -62s-20 -45.5 -25 -72.5s-7.5 -59.833 -7.5 -98.5v-690c0 -46 3.16699 -82.333 9.5 -109s18 -50.834 35 -72.501s41.167 -43.834 72.5 -66.501l-101 -100c-62.667 46 -105 92.5 -127 139.5s-33 115.833 -33 206.5v688
c0 141.333 38.333 251.333 115 330c75.333 76 180.666 114 315.999 114h303c66.667 0 126.334 -9.5 179.001 -28.5s98 -47.5 136 -85.5c78 -78 117 -188 117 -330v-1018zM1169 487.002c0 72 -6.16699 135.5 -18.5 190.5s-36.5 99.5 -72.5 133.5s-88 51 -156 51
s-120.167 -17 -156.5 -51s-60.666 -78.5 -72.999 -133.5s-18.5 -118.5 -18.5 -190.5s6.16699 -135.333 18.5 -190s36.666 -99 72.999 -133s88.5 -51 156.5 -51s120.167 17 156.5 51s60.5 78.333 72.5 133s18 118 18 190z" />
    <glyph glyph-name="A" unicode="A" horiz-adv-x="1251" 
d="M1227 0h-166l-117 330h-637l-117 -330h-165l536 1458h131zM899 465l-270 770l-275 -770h545z" />
    <glyph glyph-name="B" unicode="B" horiz-adv-x="1368" 
d="M1212 403c0 -87.333 -17.9971 -160.998 -53.9971 -220.998s-86.667 -105.333 -152 -136s-141.333 -46 -228 -46h-567v1458h549c62.667 0 121.167 -9 175.5 -27s99.833 -43.5 136.5 -76.5s65.5 -73.833 86.5 -122.5s31.5 -103 31.5 -163
c0 -50.667 -9.33301 -97.5 -28 -140.5s-44.334 -79.833 -77.001 -110.5s-69.334 -53.334 -110.001 -68.001c47.333 -17.333 88.666 -42.333 123.999 -75s63 -72.334 83 -119.001s30 -97.667 30 -153zM1034 1067c0 84 -26.167 147 -78.5 189s-121.5 63 -207.5 63h-381v-506
h381c85.333 0 154.333 21.5 207 64.5s79 106.167 79 189.5zM1057 408.002c0 54.667 -11.834 101.832 -35.501 141.499s-57.667 70.334 -102 92.001s-96.166 32.5 -155.499 32.5h-397v-535h397c90 0 161.333 24.333 214 73s79 114 79 196z" />
    <glyph glyph-name="C" unicode="C" horiz-adv-x="1202" 
d="M1075 166c-61.333 -59.333 -123.663 -103.834 -186.996 -133.501s-137.333 -44.5 -222 -44.5c-148 0 -272.333 50.333 -373 151c-35.333 36 -61.833 71.5 -79.5 106.5s-30.834 75.833 -39.501 122.5s-13.834 94.5 -15.501 143.5s-2.5 121.5 -2.5 217.5
c0 124.667 2.16699 217.834 6.5 279.501s16.166 117.834 35.499 168.501s51 98 95 142c100.667 100.667 225 151 373 151c84.667 0 159.167 -15.167 223.5 -45.5s126.166 -74.5 185.499 -132.5l-104 -104c-51.333 50.667 -99 87.167 -143 109.5s-98 33.5 -162 33.5
c-49.333 0 -95.666 -8.83301 -138.999 -26.5s-81 -42.834 -113 -75.501c-30 -30 -52.5 -64.5 -67.5 -103.5s-24.667 -87 -29 -144s-6.5 -141.167 -6.5 -252.5c0 -158.667 6 -270 18 -334s40.333 -119.333 85 -166c66 -68 150 -102 252 -102c44 0 83.167 5.5 117.5 16.5
s65.166 26.167 92.499 45.5s59 46.333 95 81z" />
    <glyph glyph-name="D" unicode="D" horiz-adv-x="1378" 
d="M1223 745v-61c0 -79.333 -2.83301 -150.5 -8.5 -213.5s-19 -124.333 -40 -184s-52.833 -110.167 -95.5 -151.5c-44 -44 -97.667 -77.5 -161 -100.5s-132.333 -34.5 -207 -34.5h-500v1458h500c155.333 0 278 -45 368 -135c42.667 -42 74.5 -90.5 95.5 -145.5
s34.333 -111.667 40 -170s8.5 -125.833 8.5 -202.5v-60zM1067 745c0 79.333 -1.66797 144.999 -5.00098 196.999s-11.833 101.833 -25.5 149.5s-35.5 87.834 -65.5 120.501c-69.333 71.333 -165 107 -287 107h-317v-1180h317c122 0 217.667 35.667 287 107
c42.667 46 69.334 109.333 80.001 190s16 183.667 16 309z" />
    <glyph glyph-name="E" unicode="E" horiz-adv-x="1229" 
d="M1116 0h-905v1458h905v-139h-749v-514h639v-139h-639v-527h749v-139z" />
    <glyph glyph-name="F" unicode="F" horiz-adv-x="1188" 
d="M1116 1319h-749v-537h639v-139h-639v-643h-156v1458h905v-139z" />
    <glyph glyph-name="G" unicode="G" horiz-adv-x="1321" 
d="M1176 532c0 -83.333 -9.82812 -155.002 -29.4951 -215.002s-51.5 -113.667 -95.5 -161c-49.333 -53.333 -107 -94.666 -173 -123.999s-136.667 -44 -212 -44c-148 0 -272.333 50.333 -373 151c-35.333 36 -61.833 71.5 -79.5 106.5s-30.834 75.833 -39.501 122.5
s-13.834 94.5 -15.501 143.5s-2.5 121.5 -2.5 217.5c0 124.667 2.16699 217.834 6.5 279.501s16.166 117.834 35.499 168.501s51 98 95 142c100.667 100.667 225 151 373 151c60 0 115 -7.16699 165 -21.5s96.167 -35.833 138.5 -64.5s86.5 -66 132.5 -112l-105 -105
c-40.667 40.667 -75.834 72 -105.501 94s-63.167 39.167 -100.5 51.5s-79 18.5 -125 18.5c-48 0 -93.833 -8.83301 -137.5 -26.5s-81.834 -43.5 -114.501 -77.5c-44.667 -46 -73 -100.833 -85 -164.5s-18 -174.834 -18 -333.501s6 -270 18 -334s40.333 -119.333 85 -166
c66 -68 150 -102 252 -102c54 0 104.833 10.833 152.5 32.5s88.167 52.5 121.5 92.5c53.333 63.333 80 152 80 266v109h-354v137h510v-232z" />
    <glyph glyph-name="H" unicode="H" horiz-adv-x="1425" 
d="M1214 0h-155v666h-692v-666h-156v1458h156v-653h692v653h155v-1458z" />
    <glyph glyph-name="I" unicode="I" horiz-adv-x="578" 
d="M367 0h-156v1458h156v-1458z" />
    <glyph glyph-name="J" unicode="J" horiz-adv-x="1026" 
d="M836 442c0 -90.667 -19.332 -170.668 -57.999 -240.001s-92.334 -122.333 -161.001 -159s-147.334 -55 -236.001 -55c-135.333 0 -246.666 43.667 -333.999 131l105 104c33.333 -32 66.333 -56 99 -72s76 -24 130 -24c95.333 0 169 29.333 221 88s78 141.334 78 248.001
v995h156v-1016z" />
    <glyph glyph-name="K" unicode="K" horiz-adv-x="1331" 
d="M1303 0h-185l-444 776l-307 -368v-408h-156v1458h156v-837l680 837h190l-459 -563z" />
    <glyph glyph-name="L" unicode="L" horiz-adv-x="1174" 
d="M1112 0h-901v1458h156v-1319h745v-139z" />
    <glyph glyph-name="M" unicode="M" horiz-adv-x="1671" 
d="M1460 0h-155v1108l-400 -879h-133l-405 879v-1108h-156v1458h156l475 -1034l463 1034h155v-1458z" />
    <glyph glyph-name="N" unicode="N" horiz-adv-x="1499" 
d="M1288 0h-147l-774 1169v-1169h-156v1458h147l775 -1165v1165h155v-1458z" />
    <glyph glyph-name="O" unicode="O" horiz-adv-x="1331" 
d="M1176 729c0 -124.667 -2.16406 -217.832 -6.49707 -279.499s-16.5 -118.334 -36.5 -170.001s-51.667 -98.5 -95 -140.5c-100.667 -100.667 -224.667 -151 -372 -151c-148 0 -272.333 50.333 -373 151c-35.333 36 -61.833 71.5 -79.5 106.5s-30.834 75.833 -39.501 122.5
s-13.834 94.5 -15.501 143.5s-2.5 121.5 -2.5 217.5c0 124.667 2.16699 217.834 6.5 279.501s16.166 117.834 35.499 168.501s51 98 95 142c100.667 100.667 225 151 373 151c147.333 0 271.333 -50.333 372 -151c43.333 -42 75 -88.833 95 -140.5
s32.167 -108.334 36.5 -170.001s6.5 -154.834 6.5 -279.501zM1020 729.002c0 93.333 -1 162.666 -3 207.999s-6.33301 85.833 -13 121.5s-16.834 66.834 -30.501 93.501s-32.167 51.667 -55.5 75c-32.667 33.333 -71 59 -115 77s-89.667 27 -137 27
c-48 0 -93.833 -8.83301 -137.5 -26.5s-81.834 -43.5 -114.501 -77.5c-44.667 -46 -73 -100.833 -85 -164.5s-18 -174.834 -18 -333.501c0 -158 6 -268.833 18 -332.5s40.333 -118.834 85 -165.501c32.667 -32.667 70.834 -58.167 114.501 -76.5s89.5 -27.5 137.5 -27.5
c47.333 0 93 9.16699 137 27.5s82.333 43.833 115 76.5c23.333 24.667 41.833 50.334 55.5 77.001s23.834 57.834 30.501 93.501s11 76 13 121s3 113.833 3 206.5z" />
    <glyph glyph-name="P" unicode="P" horiz-adv-x="1290" 
d="M1204 1030c0 -66 -10.667 -125 -32 -177s-52.166 -97.167 -92.499 -135.5s-88.666 -67.5 -144.999 -87.5s-116.5 -30 -180.5 -30h-387v-600h-156v1458h543c66 0 126.667 -9.83301 182 -29.5s103.166 -48.667 143.499 -87s71.166 -83.333 92.499 -135s32 -110.5 32 -176.5
zM1049 1030c0 62 -13 115 -39 159s-62.5 76.667 -109.5 98s-100.833 32 -161.5 32h-372v-580h372c61.333 0 115.333 11 162 33s83 55 109 99s39 97 39 159z" />
    <glyph glyph-name="Q" unicode="Q" horiz-adv-x="1329" 
d="M1235 23l-93.999 -95l-162 162c-89.333 -68 -193.666 -102 -312.999 -102c-148 0 -272.333 50.333 -373 151c-35.333 36 -61.833 71.5 -79.5 106.5s-30.834 75.833 -39.501 122.5s-13.834 94.5 -15.501 143.5s-2.5 121.5 -2.5 217.5
c0 124.667 2.16699 217.834 6.5 279.501s16.166 117.834 35.499 168.501s51 98 95 142c100.667 100.667 225 151 373 151c147.333 0 271.333 -50.333 372 -151c43.333 -42 75 -88.833 95 -140.5s32.167 -108.334 36.5 -170.001s6.5 -154.834 6.5 -279.501
c0 -113.333 -1.66699 -199 -5 -257s-12.166 -110.833 -26.499 -158.5s-37.5 -91.5 -69.5 -131.5zM1020 729c0 93.333 -0.999023 162.669 -2.99902 208.002s-6.33301 85.833 -13 121.5s-16.834 66.834 -30.501 93.501s-32.167 51.667 -55.5 75c-32.667 33.333 -71 59 -115 77
s-89.667 27 -137 27c-48 0 -93.833 -8.83301 -137.5 -26.5s-81.834 -43.5 -114.501 -77.5c-44.667 -46 -73 -100.833 -85 -164.5s-18 -174.834 -18 -333.501c0 -158 6 -268.833 18 -332.5s40.333 -118.834 85 -165.501c32.667 -32.667 70.834 -58.167 114.501 -76.5
s89.5 -27.5 137.5 -27.5c76 0 144.667 23.333 206 70l-184 184l94 94l179 -178c24.667 39.333 40.667 88.666 48 147.999s11 154 11 284z" />
    <glyph glyph-name="R" unicode="R" horiz-adv-x="1343" 
d="M1231 0h-182l-332 647h-350v-647h-156v1458h559c84 0 158.833 -16.333 224.5 -49s116.667 -79.834 153 -141.501s54.5 -133.167 54.5 -214.5c0 -104.667 -29 -191.167 -87 -259.5s-134.667 -112.166 -230 -131.499zM1047 1051c0 86.667 -26.332 153 -78.999 199
s-123.334 69 -212.001 69h-389v-535h389c56 0 106.167 9.83301 150.5 29.5s78.833 49.5 103.5 89.5s37 89.333 37 148z" />
    <glyph glyph-name="S" unicode="S" horiz-adv-x="1204" 
d="M1090 401c0 -84 -20.835 -157.174 -62.502 -219.507s-100.334 -110.166 -176.001 -143.499s-164.167 -50 -265.5 -50c-73.333 0 -139 6.5 -197 19.5s-111.5 33.5 -160.5 61.5s-96.5 65 -142.5 111l107 107c39.333 -39.333 79 -70.833 119 -94.5s82.167 -40.5 126.5 -50.5
s94.833 -15 151.5 -15c107.333 0 191.5 24 252.5 72s91.5 114 91.5 198c0 38 -6 73.333 -18 106s-29.333 58.334 -52 77.001c-22 20 -45.667 34.5 -71 43.5s-65 17.5 -119 25.5l-170 27c-116 18.667 -205.333 55.334 -268 110.001c-74 66 -111 157 -111 273
c0 80.667 18.667 152.334 56 215.001s91.5 111 162.5 145s153.833 51 248.5 51c92 0 171.5 -12.167 238.5 -36.5s132.167 -65.166 195.5 -122.499l-100 -101c-46 42 -95.833 73.333 -149.5 94s-117.167 31 -190.5 31c-63.333 0 -118.166 -11.167 -164.499 -33.5
s-81.666 -53.666 -105.999 -93.999s-36.5 -87.833 -36.5 -142.5c0 -74.667 21.667 -130.667 65 -168c46 -40 111.667 -66.667 197 -80l159 -24c64 -9.33301 116.833 -22.166 158.5 -38.499s77.834 -37.833 108.501 -64.5c82 -68.667 123 -165 123 -289z" />
    <glyph glyph-name="T" unicode="T" horiz-adv-x="1122" 
d="M1061 1319h-422v-1319h-156v1319h-422v139h1000v-139z" />
    <glyph glyph-name="U" unicode="U" horiz-adv-x="1399" 
d="M1208 481c0 -72.667 -12.501 -138.834 -37.501 -198.501s-60.167 -111.5 -105.5 -155.5s-99.666 -78.167 -162.999 -102.5s-131.333 -36.5 -204 -36.5c-72 0 -139.167 12 -201.5 36s-116.833 58.167 -163.5 102.5s-82.167 96.333 -106.5 156s-36.5 125.834 -36.5 198.501
v977h156v-964c0 -74 14.5 -138.5 43.5 -193.5s70.333 -97.667 124 -128s115.167 -45.5 184.5 -45.5c70 0 132 15.167 186 45.5s95.667 73.5 125 129.5s44 120 44 192v964h155v-977z" />
    <glyph glyph-name="V" unicode="V" horiz-adv-x="1118" 
d="M1102 1458l-479 -1458h-127l-480 1458h164l379 -1179l379 1179h164z" />
    <glyph glyph-name="W" unicode="W" horiz-adv-x="1749" 
d="M1716 1458l-373 -1458h-145l-324 1167l-323 -1167h-145l-373 1458h166l284 -1175l322 1175h139l322 -1175l284 1175h166z" />
    <glyph glyph-name="X" unicode="X" horiz-adv-x="1128" 
d="M1098 0h-180l-355 612l-356 -612h-176l446 748l-418 710h181l323 -575l324 575h180l-420 -710z" />
    <glyph glyph-name="Y" unicode="Y" horiz-adv-x="1053" 
d="M1036 1458l-430 -856v-602h-155v602l-435 856h168l344 -698l340 698h168z" />
    <glyph glyph-name="Z" unicode="Z" horiz-adv-x="1139" 
d="M1022 0h-905v147l729 1172h-701v139h877v-131l-735 -1188h735v-139z" />
    <glyph glyph-name="bracketleft" unicode="[" horiz-adv-x="641" 
d="M551 -152h-363v1762h363v-131h-215v-1499h215v-132z" />
    <glyph glyph-name="backslash" unicode="\" horiz-adv-x="727" 
d="M727 -152h-145l-582 1756h145z" />
    <glyph glyph-name="bracketright" unicode="]" horiz-adv-x="641" 
d="M453 -152h-363v127h221v1508h-221v127h363v-1762z" />
    <glyph glyph-name="asciicircum" unicode="^" horiz-adv-x="1100" 
d="M952 846h-151l-250 467l-252 -467h-152l336 624h135z" />
    <glyph glyph-name="underscore" unicode="_" horiz-adv-x="1100" 
d="M1100 -338h-1100v105h1100v-105z" />
    <glyph glyph-name="grave" unicode="`" horiz-adv-x="1024" 
d="M612 1217h-135l-221 313h176z" />
    <glyph glyph-name="a" unicode="a" horiz-adv-x="1077" 
d="M903 0l-147 0.000976562v96c-40.667 -40.667 -82.667 -68.834 -126 -84.501s-98.333 -23.5 -165 -23.5c-68 0 -124.667 7.16699 -170 21.5s-83.666 37.833 -114.999 70.5c-50.667 50.667 -76 119 -76 205c0 90 30.167 160.833 90.5 212.5s146.5 77.5 258.5 77.5h303v97
c0 75.333 -20.167 131 -60.5 167s-106.166 54 -197.499 54c-63.333 0 -113.833 -8.5 -151.5 -25.5s-71.834 -46.833 -102.501 -89.5l-101 92c28.667 37.333 60.334 67.166 95.001 89.499s73.167 38 115.5 47s91.166 13.5 146.499 13.5c69.333 0 129 -7.16699 179 -21.5
s91.667 -35.666 125 -63.999s58.166 -63 74.499 -104s24.5 -89.833 24.5 -146.5v-684zM756 356.001l0.00195312 109h-283c-150 0 -225 -59.333 -225 -178c0 -58 18.667 -101.167 56 -129.5s95.666 -42.5 174.999 -42.5c50.667 0 93.667 4.16699 129 12.5
s67.666 26.5 96.999 54.5c34 32.667 51 90.667 51 174z" />
    <glyph glyph-name="b" unicode="b" horiz-adv-x="1116" 
d="M985 504c0 -92.667 -8.83301 -175.834 -26.5 -249.501s-49.834 -133.167 -96.501 -178.5c-26 -26 -61 -47.167 -105 -63.5s-91 -24.5 -141 -24.5c-39.333 0 -75 3.83301 -107 11.5s-63.5 21.834 -94.5 42.501s-58.5 47 -82.5 79v-121h-148v1458h148v-567
c38 48.667 79.667 82.334 125 101.001s98.333 28 159 28c50 0 97 -7.83301 141 -23.5s79 -37.167 105 -64.5c46.667 -45.333 78.834 -104.833 96.501 -178.5s26.5 -156.834 26.5 -249.501zM838 504c0 118.667 -17 212.5 -51 281.5s-101 103.5 -201 103.5
c-99.333 0 -166.5 -34.833 -201.5 -104.5s-52.5 -163.167 -52.5 -280.5c0 -118 17.333 -211.667 52 -281s102 -104 202 -104s167 34.333 201 103s51 162.667 51 282z" />
    <glyph glyph-name="c" unicode="c" horiz-adv-x="1004" 
d="M907 137c-50.667 -54.667 -101 -93.168 -151 -115.501s-110.333 -33.5 -181 -33.5c-62.667 0 -121.5 11 -176.5 33s-102.5 54.5 -142.5 97.5s-71.167 97 -93.5 162s-33.5 139.5 -33.5 223.5c0 110.667 19.333 205 58 283s91.667 136.333 159 175s143.666 58 228.999 58
c71.333 0 131.833 -11.167 181.5 -33.5s99.834 -61.166 150.501 -116.499l-100 -94c-37.333 41.333 -73 70.5 -107 87.5s-75.667 25.5 -125 25.5c-102 0 -179.667 -38.333 -233 -115c-23.333 -32.667 -40.166 -70.167 -50.499 -112.5s-15.5 -94.833 -15.5 -157.5
c0 -62 5.16699 -114.167 15.5 -156.5s27.166 -80.5 50.499 -114.5c54 -76 131.667 -114 233 -114c48 0 88.833 8.5 122.5 25.5s70.167 46.5 109.5 88.5z" />
    <glyph glyph-name="d" unicode="d" horiz-adv-x="1116" 
d="M932 0l-145.999 0.000976562v121c-25.333 -34 -53.333 -60.833 -84 -80.5s-62.334 -33.334 -95.001 -41.001s-68.334 -11.5 -107.001 -11.5c-105.333 0 -187.333 29.333 -246 88c-82 82 -123 224.667 -123 428c0 202.667 41 345.334 123 428.001
c58.667 58.667 140.667 88 246 88c61.333 0 114.333 -9.33301 159 -28s86.334 -52.334 125.001 -101.001v567h148v-1458zM784.001 504.001c0 118.667 -16.999 212.5 -50.999 281.5s-101 103.5 -201 103.5c-99.333 0 -166.333 -35 -201 -105s-52 -163.333 -52 -280
c0 -118 17.167 -211.667 51.5 -281s101.5 -104 201.5 -104c99.333 0 166.166 34.333 200.499 103s51.5 162.667 51.5 282z" />
    <glyph glyph-name="e" unicode="e" 
d="M956 465l-680 0.00292969c0 -110.667 25.833 -196.334 77.5 -257.001s124.834 -91 219.501 -91c56 0 103.667 8.66699 143 26s80 46.666 122 87.999l100 -88c-54.667 -54.667 -109.167 -94.167 -163.5 -118.5s-122.833 -36.5 -205.5 -36.5
c-88.667 0 -166.167 18.333 -232.5 55s-117.5 93.667 -153.5 171s-54 174 -54 290c0 81.333 9.5 153.666 28.5 216.999s46.5 117.333 82.5 162s79.667 78.667 131 102s108.666 35 171.999 35c85.333 0 159.333 -19.833 222 -59.5s110.167 -96.5 142.5 -170.5
s48.5 -160 48.5 -258v-67zM809 575.003c-3.33301 70.667 -13.667 126.667 -31 168c-18.667 46 -49.5 82.833 -92.5 110.5s-90.5 41.5 -142.5 41.5c-52.667 0 -100.167 -13.5 -142.5 -40.5s-73.5 -64.167 -93.5 -111.5c-16 -40.667 -26.333 -96.667 -31 -168h533z" />
    <glyph glyph-name="f" unicode="f" horiz-adv-x="643" 
d="M580 889l-215 -0.000976562v-889h-148v889h-129v112h129v191c0 78.667 22 143.334 66 194.001s107.333 76 190 76h107v-127h-80c-90 0 -135 -49 -135 -147v-187h215v-112z" />
    <glyph glyph-name="g" unicode="g" horiz-adv-x="1112" 
d="M928 -31c0 -62.667 -9.33398 -119.999 -28.001 -171.999s-46.334 -97.667 -83.001 -137s-81.5 -69.666 -134.5 -90.999s-111.167 -32 -174.5 -32c-35.333 0 -68.333 2.5 -99 7.5s-59.834 13 -87.501 24s-54 25.167 -79 42.5s-50.5 37.666 -76.5 60.999l96 95
c26.667 -23.333 50.834 -42.333 72.501 -57s46.334 -25.667 74.001 -33s59.5 -11 95.5 -11c92.667 0 161.834 28.5 207.501 85.5s68.5 131.5 68.5 223.5v158c-25.333 -32.667 -53.166 -58.834 -83.499 -78.501s-61.333 -33.334 -93 -41.001s-66.834 -11.5 -105.501 -11.5
c-50 0 -96 8 -138 24s-77.333 38 -106 66c-32.667 33.333 -57.834 71.333 -75.501 114s-30 90 -37 142s-10.5 106.667 -10.5 164c0 92 8.83301 173.333 26.5 244s49.834 129.334 96.501 176.001c58.667 58.667 140.667 88 246 88c60.667 0 113.167 -9.33301 157.5 -28
s85.833 -53 124.5 -103v119h146v-1039zM779.999 512.001c0 116 -16.667 207.833 -50 275.5s-100 101.5 -200 101.5c-68.667 0 -121.334 -17.167 -158.001 -51.5s-61.334 -79.5 -74.001 -135.5s-19 -119.333 -19 -190s6.33301 -134 19 -190s37.334 -101.167 74.001 -135.5
s89.334 -51.5 158.001 -51.5c100 0 166.667 33.833 200 101.5s50 159.5 50 275.5z" />
    <glyph glyph-name="h" unicode="h" horiz-adv-x="1151" 
d="M977 0l-147.999 -0.00195312v623c0 58 -9.83301 106.833 -29.5 146.5s-47.834 69.5 -84.501 89.5s-80.334 30 -131.001 30c-78 0 -139.5 -22.833 -184.5 -68.5s-67.5 -111.5 -67.5 -197.5v-623h-148v1458h148v-561c72 82 166 123 282 123
c74.667 0 139.334 -15.167 194.001 -45.5s96.5 -73.666 125.5 -129.999s43.5 -122.166 43.5 -197.499v-647z" />
    <glyph glyph-name="i" unicode="i" horiz-adv-x="518" 
d="M360 1386c0 -18 -4.66797 -34.667 -14.001 -50s-21.666 -27.5 -36.999 -36.5s-32.333 -13.5 -51 -13.5c-18 0 -34.667 4.5 -50 13.5s-27.5 21.167 -36.5 36.5s-13.5 32 -13.5 50c0 18.667 4.5 35.667 13.5 51s21.167 27.5 36.5 36.5s32 13.5 50 13.5
c13.333 0 26.5 -2.66699 39.5 -8s24.167 -12.833 33.5 -22.5s16.5 -20.5 21.5 -32.5s7.5 -24.667 7.5 -38zM331.999 0h-148v1008h148v-1008z" />
    <glyph glyph-name="j" unicode="j" horiz-adv-x="518" 
d="M360 1386c0 -18 -4.66797 -34.667 -14.001 -50s-21.666 -27.5 -36.999 -36.5s-32.333 -13.5 -51 -13.5c-18 0 -34.667 4.5 -50 13.5s-27.5 21.167 -36.5 36.5s-13.5 32 -13.5 50c0 18.667 4.5 35.667 13.5 51s21.167 27.5 36.5 36.5s32 13.5 50 13.5
c13.333 0 26.5 -2.66699 39.5 -8s24.167 -12.833 33.5 -22.5s16.5 -20.5 21.5 -32.5s7.5 -24.667 7.5 -38zM331.999 -182c0 -52 -9.33203 -98.5 -27.999 -139.5s-47.167 -73.167 -85.5 -96.5s-85.833 -35 -142.5 -35h-107v129h80c49.333 0 84.166 12 104.499 36
s30.5 61.333 30.5 112v1184h148v-1190z" />
    <glyph glyph-name="k" unicode="k" horiz-adv-x="1098" 
d="M1030 0h-182l-320 516l-196 -225v-291h-148v1458h148v-975l454 525h185l-342 -385z" />
    <glyph glyph-name="l" unicode="l" horiz-adv-x="608" 
d="M543 0l-107 -0.000976562c-84.667 0 -148.5 24.667 -191.5 74s-64.5 114 -64.5 194v1190h148v-1184c0 -51.333 10 -88.666 30 -111.999s55 -35 105 -35h80v-127z" />
    <glyph glyph-name="m" unicode="m" horiz-adv-x="1800" 
d="M1626 0l-147.001 0.000976562v621c0 87.333 -21.833 153.833 -65.5 199.5s-104.5 68.5 -182.5 68.5c-49.333 0 -93.166 -10 -131.499 -30s-68 -48.667 -89 -86s-31.5 -82.666 -31.5 -135.999v-637h-148v621c0 44 -6 83.333 -18 118s-28.167 62.667 -48.5 84
s-45.5 37.666 -75.5 48.999s-65 17 -105 17c-78 0 -139.5 -23.167 -184.5 -69.5s-67.5 -112.5 -67.5 -198.5v-621h-148v1008h148v-111c70.667 82 165.334 123 284.001 123c70.667 0 132.167 -14 184.5 -42s94.166 -70 125.499 -126c78.667 112 189 168 331 168
c108 0 195 -31.333 261 -94c72 -70.667 108 -164.334 108 -281.001v-645z" />
    <glyph glyph-name="n" unicode="n" horiz-adv-x="1151" 
d="M977 0l-148.001 0.00195312v621c0 44 -6 83.333 -18 118s-28.167 62.667 -48.5 84s-45.5 37.666 -75.5 48.999s-65 17 -105 17c-77.333 0 -138.333 -23.167 -183 -69.5s-67 -112.5 -67 -198.5v-621h-148v1008h148v-111c36.667 41.333 78.334 72.166 125.001 92.499
s99 30.5 157 30.5c109.333 0 195.333 -31.333 258 -94c70 -68 105 -161.667 105 -281v-645z" />
    <glyph glyph-name="o" unicode="o" 
d="M954 504c0 -58.667 -3.16699 -110.833 -9.5 -156.5s-18.666 -89.667 -36.999 -132s-43.833 -80.166 -76.5 -113.499c-76 -76 -172 -114 -288 -114c-115.333 0 -211.666 38 -288.999 114c-32.667 33.333 -58 70.666 -76 111.999s-30.333 85.333 -37 132
s-10 99.334 -10 158.001c0 88.667 8.66699 165.5 26 230.5s49.666 121.833 96.999 170.5c76.667 76.667 173 115 289 115c116.667 0 212.667 -38.333 288 -115c47.333 -47.333 79.666 -103.833 96.999 -169.5s26 -142.834 26 -231.501zM807 504.001
c0 73.333 -5.16797 135.332 -15.501 185.999s-31.833 92.334 -64.5 125.001c-49.333 49.333 -110.666 74 -183.999 74c-71.333 0 -132.333 -24.667 -183 -74c-33.333 -34 -55.166 -76.833 -65.499 -128.5s-15.5 -112.5 -15.5 -182.5c0 -70.667 5.16699 -131.667 15.5 -183
s32.166 -94 65.499 -128c49.333 -49.333 110.333 -74 183 -74c74.667 0 136 24.667 184 74c33.333 33.333 55 75 65 125s15 112 15 186z" />
    <glyph glyph-name="p" unicode="p" horiz-adv-x="1116" 
d="M985 504c0 -92.667 -8.83398 -175.834 -26.501 -249.501s-49.834 -133.167 -96.501 -178.5c-26 -26 -61 -47.167 -105 -63.5s-91 -24.5 -141 -24.5c-39.333 0 -75 3.83301 -107 11.5s-63.167 21.334 -93.5 41.001s-58.166 45.834 -83.499 78.501v-570h-148v1459h148v-119
c38.667 50 80.5 84.333 125.5 103s97.833 28 158.5 28c50 0 97 -7.83301 141 -23.5s79 -37.167 105 -64.5c46.667 -45.333 78.834 -104.833 96.501 -178.5s26.5 -156.834 26.5 -249.501zM837.999 504c0 118.667 -17 212.5 -51 281.5s-101 103.5 -201 103.5
c-99.333 0 -166.5 -34.833 -201.5 -104.5s-52.5 -163.167 -52.5 -280.5c0 -118 17.333 -211.667 52 -281s102 -104 202 -104s167 34.333 201 103s51 162.667 51 282z" />
    <glyph glyph-name="q" unicode="q" horiz-adv-x="1116" 
d="M932 -451l-148.001 0.000976562v570c-25.333 -32.667 -53.166 -58.834 -83.499 -78.501s-61.5 -33.334 -93.5 -41.001s-67.667 -11.5 -107 -11.5c-105.333 0 -187.333 29.333 -246 88c-82 82 -123 224.667 -123 428c0 202.667 41 345.334 123 428.001
c58.667 58.667 140.667 88 246 88c61.333 0 114.833 -9.33301 160.5 -28s87.5 -53 125.5 -103v119h146v-1459zM783.999 504.001c0 118.667 -16.999 212.5 -50.999 281.5s-101 103.5 -201 103.5c-99.333 0 -166.333 -35 -201 -105s-52 -163.333 -52 -280
c0 -118 17.167 -211.667 51.5 -281s101.5 -104 201.5 -104c99.333 0 166.166 34.333 200.499 103s51.5 162.667 51.5 282z" />
    <glyph glyph-name="r" unicode="r" horiz-adv-x="862" 
d="M856 926l-107.999 -110.999c-27.333 27.333 -53.833 46.5 -79.5 57.5s-57.5 16.5 -95.5 16.5c-48 0 -90.333 -11.833 -127 -35.5s-64.834 -55.834 -84.501 -96.501s-29.5 -87 -29.5 -139v-618h-148v1008h148v-123c28 42 67.5 75 118.5 99s105.5 36 163.5 36
c98 0 178.667 -31.333 242 -94z" />
    <glyph glyph-name="s" unicode="s" horiz-adv-x="1016" 
d="M911 295c0 -64 -17.001 -119.001 -51.001 -165.001s-81.667 -81.167 -143 -105.5s-133 -36.5 -215 -36.5c-87.333 0 -164.666 11.333 -231.999 34s-128 59.667 -182 111l98 98c73.333 -77.333 178 -116 314 -116c84 0 149.667 15 197 45s71 74.333 71 133
c0 44 -13.5 78.333 -40.5 103s-69.5 39.334 -127.5 44.001l-166 15c-200.667 16.667 -301 106.667 -301 270c0 90.667 34.5 162.5 103.5 215.5s158.167 79.5 267.5 79.5c72.667 0 140.334 -9.16699 203.001 -27.5s115.667 -45.5 159 -81.5l-96 -96
c-70 53.333 -159.333 80 -268 80c-72.667 0 -128.5 -14.667 -167.5 -44s-58.5 -70 -58.5 -122c0 -88.667 59 -137.667 177 -147l161 -15c95.333 -8.66699 168.666 -34 219.999 -76s77 -107.333 77 -196z" />
    <glyph glyph-name="t" unicode="t" horiz-adv-x="680" 
d="M571 0h-103.999c-82.667 0 -146.334 25.5 -191.001 76.5s-67 115.5 -67 193.5v619h-127v112h127v316h147v-316h215v-112h-215v-615c0 -98 46 -147 138 -147h77v-127z" />
    <glyph glyph-name="u" unicode="u" horiz-adv-x="1151" 
d="M967 0l-145.999 0.000976562v113c-34.667 -40.667 -76.667 -71.667 -126 -93s-102 -32 -158 -32c-111.333 0 -198.333 31.333 -261 94c-34.667 34.667 -60.334 75.667 -77.001 123s-25 100.666 -25 159.999v643h148v-621c0 -86.667 21.667 -153 65 -199
s103.333 -69 180 -69c78 0 139.5 23.167 184.5 69.5s67.5 112.5 67.5 198.5v621h148v-1008z" />
    <glyph glyph-name="v" unicode="v" horiz-adv-x="915" 
d="M893 1008l-371 -1008h-131l-368 1008h159l275 -809l276 809h160z" />
    <glyph glyph-name="w" unicode="w" horiz-adv-x="1483" 
d="M1460 1008l-317 -1008h-137l-265 782l-262 -782h-137l-319 1008h159l232 -809l264 809h127l266 -809l229 809h160z" />
    <glyph glyph-name="x" unicode="x" horiz-adv-x="979" 
d="M911 0h-178l-241 391l-246 -391h-178l342 514l-328 494h178l232 -373l227 373h178l-328 -494z" />
    <glyph glyph-name="y" unicode="y" horiz-adv-x="915" 
d="M893 1008l-459.001 -1252c-19.333 -52.667 -43.333 -92 -72 -118c-47.333 -46.667 -112.666 -70 -195.999 -70h-64v131h45c50 0 86 9 108 27s41.333 50.667 58 98l72 196l-362 988h159l277 -809l274 809h160z" />
    <glyph glyph-name="z" unicode="z" horiz-adv-x="940" 
d="M834 0h-732v127l562 750h-531v131h701v-125l-564 -752h564v-131z" />
    <glyph glyph-name="braceleft" unicode="{" horiz-adv-x="725" 
d="M625 -152l-75.9971 -0.00195312c-50 0 -91.333 4.83301 -124 14.5s-60.334 25.5 -83.001 47.5c-23.333 24.667 -39.333 51.334 -48 80.001s-13 69.667 -13 123v391c0 56 -12.333 97 -37 123c-26 24.667 -56.667 37 -92 37h-54v131h54c36 0 66.667 12 92 36
c24.667 26 37 67 37 123v392c0 52.667 4.33301 93.667 13 123s24.667 55.666 48 78.999c41.333 41.333 110.333 62 207 62h76v-131h-47c-38 0 -65.333 -2 -82 -6s-29.667 -11 -39 -21c-19.333 -18.667 -29 -63 -29 -133v-385c0 -54 -10.833 -96.5 -32.5 -127.5
s-53.834 -56.833 -96.501 -77.5c42 -19.333 74 -44.666 96 -75.999s33 -74.333 33 -129v-385c0 -69.333 9.66699 -113.666 29 -132.999c9.33301 -9.33301 23.166 -16 41.499 -20s44.833 -6 79.5 -6h47v-132z" />
    <glyph glyph-name="bar" unicode="|" horiz-adv-x="668" 
d="M408 -152h-148v1762h148v-1762z" />
    <glyph glyph-name="braceright" unicode="}" horiz-adv-x="725" 
d="M625 664l-52.002 0.00195312c-35.333 0 -66 -12.333 -92 -37c-24.667 -26 -37 -67 -37 -123v-391c0 -53.333 -4.5 -94.833 -13.5 -124.5s-24.833 -55.834 -47.5 -78.501c-22 -22 -49.167 -37.833 -81.5 -47.5s-74.166 -14.5 -125.499 -14.5h-78v132h49
c34.667 0 60.834 2 78.501 6s31.167 10.667 40.5 20c20.667 20.667 31 65 31 133v385c0 54.667 11 97.667 33 129s54 56.666 96 75.999c-27.333 12.667 -50.5 27.5 -69.5 44.5s-33.667 39 -44 66s-15.5 58.5 -15.5 94.5v385c0 68.667 -10.333 113 -31 133
c-9.33301 10 -22 17 -38 21s-43 6 -81 6h-49v131h78c96.667 0 165.667 -20.667 207 -62c22.667 -22 38.5 -48 47.5 -78s13.5 -71.333 13.5 -124v-392c0 -56 12.333 -97 37 -123c25.333 -24 56 -36 92 -36h52v-131z" />
    <glyph glyph-name="asciitilde" unicode="~" horiz-adv-x="1104" 
d="M1004 569c-38 -38 -71.167 -67 -99.5 -87s-55.166 -33.667 -80.499 -41s-53.666 -11 -84.999 -11c-32.667 0 -64.5 5.16699 -95.5 15.5s-71.5 26.5 -121.5 48.5c-71.333 32.667 -124.666 49 -159.999 49c-30 0 -56.667 -5.83301 -80 -17.5s-54 -36.5 -92 -74.5l-90 92
c38 38 71.167 67 99.5 87s55 33.667 80 41s53.5 11 85.5 11c33.333 0 65.666 -5.16699 96.999 -15.5s70.666 -26.5 117.999 -48.5c39.333 -17.333 69.666 -29.833 90.999 -37.5s44 -11.5 68 -11.5c30.667 0 57.5 6 80.5 18s53.5 37 91.5 75z" />
    <glyph glyph-name="nonbreakingspace" unicode="&#xa0;" horiz-adv-x="510" 
 />
    <glyph glyph-name="exclamdown" unicode="&#xa1;" horiz-adv-x="647" 
d="M408 911c0 -29.333 -10 -53.665 -30 -72.998s-44.333 -29 -73 -29c-29.333 0 -53.666 9.66699 -72.999 29s-29 43.666 -29 72.999c0 30 9.66699 54.667 29 74s43.666 29 72.999 29c14 0 27.5 -2.66699 40.5 -8s24 -12.333 33 -21s16.167 -19.834 21.5 -33.501
s8 -27.167 8 -40.5zM391 -450.999h-172l27 1049h119z" />
    <glyph glyph-name="cent" unicode="&#xa2;" horiz-adv-x="1020" 
d="M918 387c-46.667 -50.667 -92.5 -87.498 -137.5 -110.498s-98.167 -36.5 -159.5 -40.5v-236h-121v240c-56 8 -106.833 25.167 -152.5 51.5s-85.167 62 -118.5 107s-58.333 96.833 -75 155.5s-25 124 -25 196c0 72.667 8.5 138.5 25.5 197.5s41.833 110.667 74.5 155
s71.5 79.666 116.5 105.999s96.5 43.5 154.5 51.5v198h121v-194c59.333 -4 112 -17.667 158 -41s92.333 -60.333 139 -111l-101 -94c-33.333 38.667 -65.333 66.167 -96 82.5s-67 26.166 -109 29.499v-761c42 3.33301 78.167 13.333 108.5 30s62.5 44 96.5 82zM508 373.002
v752.999c-67.333 -12 -122 -47.333 -164 -106c-23.333 -33.333 -40.5 -70.833 -51.5 -112.5s-16.5 -94.167 -16.5 -157.5c0 -117.333 22.667 -207.666 68 -270.999c42 -58.667 96.667 -94 164 -106z" />
    <glyph glyph-name="sterling" unicode="&#xa3;" horiz-adv-x="1122" 
d="M1016 0l-791 0.000976562v676h-129v110h129v230c0 91.333 19.5 171.5 58.5 240.5s93.167 121.833 162.5 158.5s148 55 236 55c70 0 132.333 -10.833 187 -32.5s103.667 -54.5 147 -98.5l-107 -104c-30.667 31.333 -62.667 55.166 -96 71.499s-77 24.5 -131 24.5
c-95.333 0 -169 -29 -221 -87s-78 -141 -78 -249v-209h299v-110h-299v-537h633v-139z" />
    <glyph glyph-name="currency" unicode="&#xa4;" horiz-adv-x="1352" 
d="M1192 133l-94 -94l-154 151c-80.667 -60 -170 -90 -268 -90c-100.667 0 -190.667 30 -270 90l-152 -151l-94 94l151 152c-60 79.333 -90 169.333 -90 270s30 190.667 90 270l-151 150l94 94l152 -149c78 58.667 168 88 270 88c100 0 189.333 -29.333 268 -88l154 149
l94 -94l-152 -150c60 -78 90 -168 90 -270s-30 -192 -90 -270zM993 555c0 56.667 -14.167 109.5 -42.5 158.5s-67 87.667 -116 116s-101.833 42.5 -158.5 42.5s-109.667 -14 -159 -42s-88.5 -66.5 -117.5 -115.5s-43.5 -102.167 -43.5 -159.5
c0 -88 31.5 -163.167 94.5 -225.5s138.167 -93.5 225.5 -93.5c56.667 0 109.667 14.333 159 43s88 67.667 116 117s42 102.333 42 159z" />
    <glyph glyph-name="yen" unicode="&#xa5;" horiz-adv-x="1053" 
d="M1036 1458l-321 -637h205v-110h-261l-53 -109v-106h314v-113h-314v-383h-157v383h-316v113h316v106l-54 109h-262v110h205l-322 637h168l344 -698l342 698h166z" />
    <glyph glyph-name="brokenbar" unicode="&#xa6;" horiz-adv-x="686" 
d="M408 893h-148v717h148v-717zM408 -152h-148v717h148v-717z" />
    <glyph glyph-name="section" unicode="&#xa7;" horiz-adv-x="1141" 
d="M963 520c0 -78 -20.498 -146 -61.498 -204s-91.5 -102 -151.5 -132c60 -22 108 -58.5 144 -109.5s54 -112.833 54 -185.5c0 -69.333 -16.5 -130.833 -49.5 -184.5s-78.167 -95 -135.5 -124s-121.333 -43.5 -192 -43.5c-69.333 0 -132.333 12.5 -189 37.5
s-102.834 62.333 -138.501 112s-55.5 109.834 -59.5 180.501h150c6 -62.667 29.667 -110.834 71 -144.501s96.666 -50.5 165.999 -50.5c70 0 125.5 19 166.5 57s61.5 90.667 61.5 158c0 48.667 -16.167 91.834 -48.5 129.501s-76.5 64.167 -132.5 79.5l-159 45
c-59.333 16.667 -110 42.667 -152 78s-74 78.166 -96 128.499s-33 106.5 -33 168.5c0 79.333 20.5 148 61.5 206s92.167 101.333 153.5 130c-62.667 29.333 -110 66 -142 110s-48 101.667 -48 173c0 64.667 15.5 122.5 46.5 173.5s74.5 90.667 130.5 119
s119.667 42.5 191 42.5c72 0 135.5 -13 190.5 -39s98.333 -62.833 130 -110.5s49.167 -104.834 52.5 -171.501h-147c-10 126.667 -85.333 190 -226 190c-70 0 -124.333 -17.333 -163 -52s-58 -84.667 -58 -150c0 -51.333 15 -93 45 -125s72.333 -56 127 -72l160 -45
c58 -16.667 108.333 -42.667 151 -78s75 -78.166 97 -128.499s33 -106.5 33 -168.5zM813.002 518c0 82 -21.666 144.999 -64.999 188.999c-50 48.667 -109 73 -177 73c-72.667 0 -131.334 -24.333 -176.001 -73c-24 -27.333 -41.167 -55.333 -51.5 -84
s-15.5 -63.667 -15.5 -105c0 -76 22.333 -138.667 67 -188c45.333 -49.333 104 -74 176 -74c72.667 0 131.667 24.667 177 74c43.333 48.667 65 111.334 65 188.001z" />
    <glyph glyph-name="dieresis" unicode="&#xa8;" horiz-adv-x="1024" 
d="M821 1321c0 -25.333 -8.66699 -47 -26 -65s-39.333 -27 -66 -27c-25.333 0 -47 9 -65 27s-27 39.667 -27 65c0 26 9.16699 48.167 27.5 66.5s39.833 27.5 64.5 27.5c26 0 47.833 -9.16699 65.5 -27.5s26.5 -40.5 26.5 -66.5zM387 1321c0 -25.333 -8.66699 -47 -26 -65
s-39.333 -27 -66 -27c-25.333 0 -47 9 -65 27s-27 39.667 -27 65c0 26 9.16699 48.167 27.5 66.5s39.833 27.5 64.5 27.5c26 0 47.833 -9.16699 65.5 -27.5s26.5 -40.5 26.5 -66.5z" />
    <glyph glyph-name="copyright" unicode="&#xa9;" horiz-adv-x="1804" 
d="M1642 729c0 -99.333 -19.333 -194.668 -58 -286.001s-91.667 -170.666 -159 -237.999s-146.666 -120.333 -237.999 -159s-186.666 -58 -285.999 -58c-98.667 0 -193.667 19.167 -285 57.5s-170.833 91.333 -238.5 159s-120.834 147.167 -159.501 238.5
s-58 186.666 -58 285.999s19.333 194.666 58 285.999s91.834 170.833 159.501 238.5s147.167 120.667 238.5 159s186.333 57.5 285 57.5c99.333 0 194.666 -19.333 285.999 -58s170.666 -91.667 237.999 -159s120.333 -146.666 159 -237.999s58 -186.666 58 -285.999z
M1524 728.998c0 86 -16.335 167.5 -49.002 244.5s-77.167 144.167 -133.5 201.5s-122.833 102.5 -199.5 135.5s-157 49.5 -241 49.5s-164.167 -16.5 -240.5 -49.5s-142.5 -78.333 -198.5 -136s-100.167 -125.167 -132.5 -202.5s-48.5 -158.333 -48.5 -243
c0 -114 27.833 -219.333 83.5 -316s130.834 -173.334 225.501 -230.001s198.334 -85 311.001 -85c84 0 163.833 16.333 239.5 49s142.167 77.834 199.5 135.501s102.333 125 135 202s49 158.5 49 244.5zM1180 419.998c-42 -38 -83.667 -65.334 -125 -82.001
s-89.333 -25 -144 -25c-57.333 0 -109 10.333 -155 31s-84.667 50 -116 88s-54.666 81.833 -69.999 131.5s-23 104.834 -23 165.501c0 80.667 13.833 152.5 41.5 215.5s69.334 112.5 125.001 148.5s121.5 54 197.5 54c55.333 0 103 -8.5 143 -25.5s82 -44.833 126 -83.5
l-74 -73c-32 28 -62.833 48.167 -92.5 60.5s-63.834 18.5 -102.501 18.5c-86.667 0 -149.834 -28.833 -189.501 -86.5s-59.5 -133.834 -59.5 -228.501c0 -94 19.667 -169.667 59 -227s102.666 -86 189.999 -86c38 0 71.833 5.83301 101.5 17.5s60.834 31.834 93.501 60.501z
" />
    <glyph glyph-name="ordfeminine" unicode="&#xaa;" horiz-adv-x="920" 
d="M748 653h-119.001v74c-32 -30 -65 -51.5 -99 -64.5s-77 -19.5 -129 -19.5c-52.667 0 -96.5 5.66699 -131.5 17s-66.167 30.333 -93.5 57c-40.667 42.667 -61 96.667 -61 162c0 71.333 24 128 72 170s116 63 204 63h236v74c0 58.667 -15.333 102 -46 130
s-81.667 42 -153 42c-49.333 0 -89 -6.66699 -119 -20s-57.333 -36.666 -82 -69.999l-84 75c34.667 45.333 74.334 77.166 119.001 95.499s100.667 27.5 168 27.5c69.333 0 128 -10.333 176 -31s83.667 -51 107 -91s35 -89.333 35 -148v-543zM626.999 938v81.999h-219
c-114.667 0 -172 -45.667 -172 -137c0 -45.333 14.167 -78.833 42.5 -100.5s72.833 -32.5 133.5 -32.5c40.667 0 74.667 3.33301 102 10s52 20.334 74 41.001c26 24 39 69.667 39 137z" />
    <glyph glyph-name="guillemotleft" unicode="&#xab;" horiz-adv-x="1135" 
d="M975 119l-430 430l430 430v-184l-248 -246l248 -248v-182zM512 119l-430 430l430 430v-184l-246 -246l246 -248v-182z" />
    <glyph glyph-name="logicalnot" unicode="&#xac;" horiz-adv-x="1069" 
d="M965 211h-138v281h-723v137h861v-418z" />
    <glyph glyph-name="minus" unicode="&#xad;" horiz-adv-x="1069" 
d="M963 483h-857v138h857v-138z" />
    <glyph glyph-name="registered" unicode="&#xae;" horiz-adv-x="1804" 
d="M1642 729c0 -99.333 -19.333 -194.668 -58 -286.001s-91.667 -170.666 -159 -237.999s-146.666 -120.333 -237.999 -159s-186.666 -58 -285.999 -58c-98.667 0 -193.667 19.167 -285 57.5s-170.833 91.333 -238.5 159s-120.834 147.167 -159.501 238.5
s-58 186.666 -58 285.999s19.333 194.666 58 285.999s91.834 170.833 159.501 238.5s147.167 120.667 238.5 159s186.333 57.5 285 57.5c99.333 0 194.666 -19.333 285.999 -58s170.666 -91.667 237.999 -159s120.333 -146.666 159 -237.999s58 -186.666 58 -285.999z
M1526 728.998c0 86.667 -16.3311 168.503 -48.998 245.503s-77.334 144.167 -134.001 201.5s-123.5 102.666 -200.5 135.999s-157.5 50 -241.5 50s-164 -16.333 -240 -49s-142.333 -77.834 -199 -135.501s-101.334 -125.834 -134.001 -204.501s-49 -160 -49 -244
s16.167 -164.833 48.5 -242.5s77.5 -146 135.5 -205s124.5 -104.667 199.5 -137s154.5 -48.5 238.5 -48.5s164.167 16.333 240.5 49s143.333 78.5 201 137.5s102.667 126.5 135 202.5s48.5 157.333 48.5 244zM1212 324.001l-131.001 0.000976562l-186 331h-123v-331h-113
v813h277c46 0 88.667 -10.667 128 -32s70.5 -50.833 93.5 -88.5s34.5 -78.834 34.5 -123.501c0 -58 -15.667 -105.667 -47 -143s-73.666 -64 -126.999 -80zM1077 893.002c0 41.333 -14.333 75.499 -43 102.499s-65.334 40.5 -110.001 40.5h-152v-284h152
c44.667 0 81.334 13.333 110.001 40s43 60.334 43 101.001z" />
    <glyph glyph-name="macron" unicode="&#xaf;" horiz-adv-x="1024" 
d="M821 1257h-618v117h618v-117z" />
    <glyph glyph-name="degree" unicode="&#xb0;" horiz-adv-x="948" 
d="M811 1141c0 -61.333 -14.832 -117.834 -44.499 -169.501s-70.334 -92.334 -122.001 -122.001s-108.167 -44.5 -169.5 -44.5c-92.667 0 -172.167 32.833 -238.5 98.5s-99.5 144.834 -99.5 237.501c0 60.667 15.167 116.834 45.5 168.501s71.666 92.5 123.999 122.5
s108.5 45 168.5 45c47.333 0 91.5 -8.66699 132.5 -26s76.333 -41 106 -71s53.334 -65.667 71.001 -107s26.5 -85.333 26.5 -132zM686.001 1141c0 40 -9.16602 76.5 -27.499 109.5s-43.833 59.167 -76.5 78.5s-69 29 -109 29c-40.667 0 -76.834 -9.5 -108.501 -28.5
s-56.667 -45.167 -75 -78.5s-27.5 -70 -27.5 -110c0 -61.333 20.5 -112.833 61.5 -154.5s91.5 -62.5 151.5 -62.5c59.333 0 109.333 20.667 150 62s61 93 61 155z" />
    <glyph glyph-name="plusminus" unicode="&#xb1;" horiz-adv-x="1069" 
d="M963 592h-359v-363h-137v363h-361v137h361v358h137v-358h359v-137zM963 0h-857v137h857v-137z" />
    <glyph glyph-name="twosuperior" unicode="&#xb2;" horiz-adv-x="700" 
d="M602 584l-503.999 -0.000976562v106l338 414c31.333 38.667 47 78.334 47 119.001c0 41.333 -11.833 74.5 -35.5 99.5s-56.167 37.5 -97.5 37.5c-38.667 0 -70.5 -11.167 -95.5 -33.5s-37.5 -56.833 -37.5 -103.5h-119c0 72.667 23.667 131.334 71 176.001
s107.666 67 180.999 67c49.333 0 93 -9.83301 131 -29.5s67.667 -47.834 89 -84.501s32 -79.667 32 -129c0 -35.333 -6 -66.833 -18 -94.5s-32.667 -59.167 -62 -94.5l-282 -344h362v-106z" />
    <glyph glyph-name="threesuperior" unicode="&#xb3;" horiz-adv-x="729" 
d="M631 829c0 -54 -11.668 -100.17 -35.001 -138.503s-55.333 -67.5 -96 -87.5s-85 -30 -133 -30c-75.333 0 -138.333 20.667 -189 62s-77.334 102 -80.001 182h119c2 -44 17.333 -77.833 46 -101.5s63.334 -35.5 104.001 -35.5c42.667 0 77.834 13.5 105.501 40.5
s41.5 63.167 41.5 108.5c0 46.667 -13 83.334 -39 110.001s-64.333 40 -115 40h-18v102h18c46.667 0 81.667 12.333 105 37s35 59 35 103c0 44.667 -13 79 -39 103s-58 36 -96 36c-40 0 -72.333 -11.667 -97 -35s-38.334 -54.666 -41.001 -93.999h-116
c2.66699 48.667 15.334 90.5 38.001 125.5s53.167 62 91.5 81s79.833 28.5 124.5 28.5c74 0 134.333 -22.5 181 -67.5s70 -103.5 70 -175.5c0 -90.667 -36.667 -153.667 -110 -189c83.333 -35.333 125 -103.666 125 -204.999z" />
    <glyph glyph-name="acute" unicode="&#xb4;" horiz-adv-x="1024" 
d="M768 1530l-221 -313h-135l180 313h176z" />
    <glyph glyph-name="mu" unicode="&#xb5;" horiz-adv-x="1149" 
d="M965 0h-148v113c-36 -40.667 -78 -71.667 -126 -93s-100 -32 -156 -32c-90 0 -162.667 25 -218 75v-514h-147v1459h147v-621c0 -87.333 22.333 -153.833 67 -199.5s105 -68.5 181 -68.5c78 0 139.5 23.167 184.5 69.5s67.5 112.5 67.5 198.5v621h148v-1008z" />
    <glyph glyph-name="paragraph" unicode="&#xb6;" horiz-adv-x="1235" 
d="M1024 -451l-147 0.00292969v1770h-240v-1770h-148v1119c-59.333 0 -113.666 10.5 -162.999 31.5s-91.833 50.167 -127.5 87.5s-63.334 79.666 -83.001 126.999s-29.5 96.333 -29.5 147c0 73.333 17.667 140.166 53 200.499s87 108.166 155 143.499s146.667 53 236 53h494
v-1909z" />
    <glyph glyph-name="cedilla" unicode="&#xb8;" horiz-adv-x="1024" 
d="M641 -137l-121 -305h-162l146 305h137z" />
    <glyph glyph-name="onesuperior" unicode="&#xb9;" horiz-adv-x="535" 
d="M375 584h-117v743l-170 -149v135l170 145h117v-874z" />
    <glyph glyph-name="ordmasculine" unicode="&#xba;" horiz-adv-x="932" 
d="M793 1055c0 -71.333 -6.83301 -132.666 -20.5 -183.999s-39.834 -96.666 -78.501 -135.999c-60 -60 -136.333 -90 -229 -90s-169 30 -229 90c-38.667 39.333 -64.834 84.666 -78.501 135.999s-20.5 112.666 -20.5 183.999c0 70.667 6.83301 131.667 20.5 183
s39.834 96.666 78.501 135.999c60 61.333 136.333 92 229 92s169 -30.667 229 -92c38.667 -39.333 64.834 -84.666 78.501 -135.999s20.5 -112.333 20.5 -183zM672 1055c0 57.333 -4.16602 106 -12.499 146s-25.5 72.333 -51.5 97c-38.667 38.667 -86.334 58 -143.001 58
c-58 0 -105.667 -19.333 -143 -58c-25.333 -24 -42 -56.167 -50 -96.5s-12 -89.166 -12 -146.499c0 -56.667 4 -104.834 12 -144.501s24.667 -72.167 50 -97.5c38 -39.333 85.667 -59 143 -59c56 0 103.667 19.667 143 59c26 26 43.167 58.667 51.5 98s12.5 87.333 12.5 144
z" />
    <glyph glyph-name="guillemotright" unicode="&#xbb;" horiz-adv-x="1135" 
d="M1053 549l-430 -430v182l245 248l-245 246v184zM590 549l-430 -430v182l248 248l-248 246v184z" />
    <glyph glyph-name="onequarter" unicode="&#xbc;" horiz-adv-x="1591" 
d="M1509 131h-96v-131h-115v131h-352v109l309 634h127l-307 -634h223v215h115v-215h96v-109zM1159 1458l-682 -1458h-123l682 1458h123zM375 584h-117v743l-170 -149v135l170 145h117v-874z" />
    <glyph glyph-name="onehalf" unicode="&#xbd;" horiz-adv-x="1618" 
d="M1520 0l-503.999 -0.00195312v106l338 414c31.333 40 47 79.667 47 119c0 41.333 -11.833 74.5 -35.5 99.5s-56.167 37.5 -97.5 37.5c-38.667 0 -70.5 -11.333 -95.5 -34s-37.5 -57 -37.5 -103h-119c0 48.667 10.667 91.5 32 128.5s51.5 65.5 90.5 85.5
s82.167 30 129.5 30c49.333 0 93.166 -10 131.499 -30s68 -48.833 89 -86.5s31.5 -80.167 31.5 -127.5c0 -35.333 -6.16699 -66.666 -18.5 -93.999s-32.833 -58.666 -61.5 -93.999l-281 -345h361v-106zM1135 1458l-682 -1458h-123l682 1458h123zM375.001 583.998h-117v743
l-170 -149v135l170 145h117v-874z" />
    <glyph glyph-name="threequarters" unicode="&#xbe;" horiz-adv-x="1683" 
d="M1602 131h-97v-131h-114v131h-353v109l310 634h127l-310 -634h226v215h114v-215h97v-109zM1268 1458l-684 -1458h-123l684 1458h123zM631 829c0 -54 -11.668 -100.17 -35.001 -138.503s-55.333 -67.5 -96 -87.5s-85 -30 -133 -30c-75.333 0 -138.333 20.667 -189 62
s-77.334 102 -80.001 182h119c2 -44 17.333 -77.833 46 -101.5s63.334 -35.5 104.001 -35.5c42.667 0 77.834 13.5 105.501 40.5s41.5 63.167 41.5 108.5c0 46.667 -13 83.334 -39 110.001s-64.333 40 -115 40h-18v102h18c46.667 0 81.667 12.333 105 37s35 59 35 103
c0 44.667 -13 79 -39 103s-58 36 -96 36c-40 0 -72.333 -11.667 -97 -35s-38.334 -54.666 -41.001 -93.999h-116c2.66699 48.667 15.334 90.5 38.001 125.5s53.167 62 91.5 81s79.833 28.5 124.5 28.5c74 0 134.333 -22.5 181 -67.5s70 -103.5 70 -175.5
c0 -90.667 -36.667 -153.667 -110 -189c83.333 -35.333 125 -103.666 125 -204.999z" />
    <glyph glyph-name="questiondown" unicode="&#xbf;" horiz-adv-x="1018" 
d="M582 911c0 -29.333 -9.66797 -53.667 -29.001 -73s-44 -29 -74 -29c-28.667 0 -53.167 9.83301 -73.5 29.5s-30.5 43.834 -30.5 72.501c0 29.333 10.167 53.833 30.5 73.5s44.833 29.5 73.5 29.5c13.333 0 26.833 -2.66699 40.5 -8s24.834 -12.333 33.501 -21
s15.667 -19.834 21 -33.501s8 -27.167 8 -40.5zM873.999 -88.001c0 -51.333 -9.66895 -99.998 -29.002 -145.998s-46.333 -86.167 -81 -120.5s-76.167 -61 -124.5 -80s-98.5 -28.5 -150.5 -28.5s-101.5 9.16699 -148.5 27.5s-88.167 44.666 -123.5 78.999
s-62.666 74.666 -81.999 120.999s-29 95.5 -29 147.5c0 43.333 7.83301 84.166 23.5 122.499s38.834 79.5 69.501 123.5l168 241c24 36.667 36 76.334 36 119.001v82h148v-84c0 -39.333 -4.83301 -73 -14.5 -101s-26.167 -58.333 -49.5 -91l-165 -238
c-23.333 -34 -40.5 -63.5 -51.5 -88.5s-16.5 -53.5 -16.5 -85.5c0 -68.667 22.167 -126.167 66.5 -172.5s100.5 -69.5 168.5 -69.5c48 0 90 11.167 126 33.5s63.667 51.833 83 88.5s29 76.667 29 120h147z" />
    <glyph glyph-name="Agrave" unicode="&#xc0;" horiz-adv-x="1251" 
d="M1227 0h-166l-117 330h-637l-117 -330h-165l536 1458h131zM899 465l-270 770l-275 -770h545zM718 1600h-135l-221 313h176z" />
    <glyph glyph-name="Aacute" unicode="&#xc1;" horiz-adv-x="1251" 
d="M1227 0h-166l-117 330h-637l-117 -330h-165l536 1458h131zM899 465l-270 770l-275 -770h545zM874 1913l-221 -313h-135l180 313h176z" />
    <glyph glyph-name="Acircumflex" unicode="&#xc2;" horiz-adv-x="1251" 
d="M1227 0h-166l-117 330h-637l-117 -330h-165l536 1458h131zM899 465l-270 770l-275 -770h545zM944 1600h-142l-184 213l-184 -213h-142l256 313h140z" />
    <glyph glyph-name="Atilde" unicode="&#xc3;" horiz-adv-x="1251" 
d="M1227 0h-166l-117 330h-637l-117 -330h-165l536 1458h131zM899 465l-270 770l-275 -770h545zM940 1733c-70 -70 -134.999 -105.001 -194.999 -105.001c-25.333 0 -48.333 3.66699 -69 11s-46 19.333 -76 36c-48.667 28.667 -87 43 -115 43
c-19.333 0 -37.333 -3.83301 -54 -11.5s-39 -25.5 -67 -53.5l-76 73c42 42.667 77.5 70.834 106.5 84.501s58.5 20.5 88.5 20.5c28.667 0 53.5 -4 74.5 -12s44.5 -20.333 70.5 -37c43.333 -27.333 81.666 -41 114.999 -41c36.667 0 77 21.667 121 65z" />
    <glyph glyph-name="Adieresis" unicode="&#xc4;" horiz-adv-x="1251" 
d="M1227 0h-166l-117 330h-637l-117 -330h-165l536 1458h131zM899 465l-270 770l-275 -770h545zM927 1704c0 -25.333 -8.66699 -47 -26 -65s-39.333 -27 -66 -27c-25.333 0 -47 9 -65 27s-27 39.667 -27 65c0 26 9.16699 48.167 27.5 66.5s39.833 27.5 64.5 27.5
c26 0 47.833 -9.16699 65.5 -27.5s26.5 -40.5 26.5 -66.5zM493 1704c0 -25.333 -8.66699 -47 -26 -65s-39.333 -27 -66 -27c-25.333 0 -47 9 -65 27s-27 39.667 -27 65c0 26 9.16699 48.167 27.5 66.5s39.833 27.5 64.5 27.5c26 0 47.833 -9.16699 65.5 -27.5
s26.5 -40.5 26.5 -66.5z" />
    <glyph glyph-name="Aring" unicode="&#xc5;" horiz-adv-x="1251" 
d="M1227 0h-166l-117 330h-637l-117 -330h-165l536 1458h131zM899 465l-270 770l-275 -770h545zM860 1776c0 -43.333 -10.999 -83.833 -32.999 -121.5s-51.333 -67.5 -88 -89.5s-77 -33 -121 -33s-84.333 11 -121 33s-66 51.833 -88 89.5s-33 78.167 -33 121.5
c0 66.667 23.667 123.667 71 171s104.333 71 171 71c43.333 0 83.666 -10.667 120.999 -32s66.833 -50.5 88.5 -87.5s32.5 -77.833 32.5 -122.5zM759.001 1776c0 38.667 -13.8311 71.5 -41.498 98.5s-60.834 40.5 -99.501 40.5s-71.834 -13.5 -99.501 -40.5
s-41.5 -59.833 -41.5 -98.5c0 -38 14 -71 42 -99s61 -42 99 -42s71 14 99 42s42 61 42 99z" />
    <glyph glyph-name="AE" unicode="&#xc6;" horiz-adv-x="1888" 
d="M1776 0h-904v346h-505l-181 -346h-170l770 1458h990v-139h-750v-518h639v-139h-639v-523h750v-139zM872 481v838l-438 -838h438z" />
    <glyph glyph-name="Ccedilla" unicode="&#xc7;" horiz-adv-x="1282" 
d="M1075 166c-61.333 -59.333 -123.663 -103.834 -186.996 -133.501s-137.333 -44.5 -222 -44.5c-148 0 -272.333 50.333 -373 151c-35.333 36 -61.833 71.5 -79.5 106.5s-30.834 75.833 -39.501 122.5s-13.834 94.5 -15.501 143.5s-2.5 121.5 -2.5 217.5
c0 124.667 2.16699 217.834 6.5 279.501s16.166 117.834 35.499 168.501s51 98 95 142c100.667 100.667 225 151 373 151c84.667 0 159.167 -15.167 223.5 -45.5s126.166 -74.5 185.499 -132.5l-104 -104c-51.333 50.667 -99 87.167 -143 109.5s-98 33.5 -162 33.5
c-49.333 0 -95.666 -8.83301 -138.999 -26.5s-81 -42.834 -113 -75.501c-30 -30 -52.5 -64.5 -67.5 -103.5s-24.667 -87 -29 -144s-6.5 -141.167 -6.5 -252.5c0 -158.667 6 -270 18 -334s40.333 -119.333 85 -166c66 -68 150 -102 252 -102c44 0 83.167 5.5 117.5 16.5
s65.166 26.167 92.499 45.5s59 46.333 95 81zM758.003 -137.001l-121 -305h-162l146 305h137z" />
    <glyph glyph-name="Egrave" unicode="&#xc8;" horiz-adv-x="1229" 
d="M1116 0h-905v1458h905v-139h-749v-514h639v-139h-639v-527h749v-139zM741 1600h-135l-221 313h176z" />
    <glyph glyph-name="Eacute" unicode="&#xc9;" horiz-adv-x="1229" 
d="M1116 0h-905v1458h905v-139h-749v-514h639v-139h-639v-527h749v-139zM897 1913l-221 -313h-135l180 313h176z" />
    <glyph glyph-name="Ecircumflex" unicode="&#xca;" horiz-adv-x="1229" 
d="M1116 0h-905v1458h905v-139h-749v-514h639v-139h-639v-527h749v-139zM967 1600h-142l-184 213l-184 -213h-142l256 313h140z" />
    <glyph glyph-name="Edieresis" unicode="&#xcb;" horiz-adv-x="1229" 
d="M1116 0h-905v1458h905v-139h-749v-514h639v-139h-639v-527h749v-139zM950 1704c0 -25.333 -8.66699 -47 -26 -65s-39.333 -27 -66 -27c-25.333 0 -47 9 -65 27s-27 39.667 -27 65c0 26 9.16699 48.167 27.5 66.5s39.833 27.5 64.5 27.5c26 0 47.833 -9.16699 65.5 -27.5
s26.5 -40.5 26.5 -66.5zM516 1704c0 -25.333 -8.66699 -47 -26 -65s-39.333 -27 -66 -27c-25.333 0 -47 9 -65 27s-27 39.667 -27 65c0 26 9.16699 48.167 27.5 66.5s39.833 27.5 64.5 27.5c26 0 47.833 -9.16699 65.5 -27.5s26.5 -40.5 26.5 -66.5z" />
    <glyph glyph-name="Igrave" unicode="&#xcc;" horiz-adv-x="578" 
d="M367 0h-156v1458h156v-1458zM419 1600h-135l-221 313h176z" />
    <glyph glyph-name="Iacute" unicode="&#xcd;" horiz-adv-x="578" 
d="M367 0h-156v1458h156v-1458zM518 1913l-221 -313h-135l180 313h176z" />
    <glyph glyph-name="Icircumflex" unicode="&#xce;" horiz-adv-x="578" 
d="M367 0h-156v1458h156v-1458zM611 1600h-142l-184 213l-184 -213h-142l256 313h140z" />
    <glyph glyph-name="Idieresis" unicode="&#xcf;" horiz-adv-x="578" 
d="M367 0h-156v1458h156v-1458zM596 1704c0 -25.333 -8.66699 -47 -26 -65s-39.333 -27 -66 -27c-25.333 0 -47 9 -65 27s-27 39.667 -27 65c0 26 9.16699 48.167 27.5 66.5s39.833 27.5 64.5 27.5c26 0 47.833 -9.16699 65.5 -27.5s26.5 -40.5 26.5 -66.5zM162 1704
c0 -25.333 -8.66699 -47 -26 -65s-39.333 -27 -66 -27c-25.333 0 -47 9 -65 27s-27 39.667 -27 65c0 26 9.16699 48.167 27.5 66.5s39.833 27.5 64.5 27.5c26 0 47.833 -9.16699 65.5 -27.5s26.5 -40.5 26.5 -66.5z" />
    <glyph glyph-name="Eth" unicode="&#xd0;" horiz-adv-x="1407" 
d="M1251 729c0 -119.333 -2.16797 -207.333 -6.50098 -264s-12.333 -102.5 -24 -137.5s-31.667 -72.667 -60 -113s-63.666 -77 -105.999 -110s-91 -58.667 -146 -77s-114.833 -27.5 -179.5 -27.5h-489v676h-160v121h160v661h501c184 0 324 -73 420 -219
c28 -42.667 48.167 -82.5 60.5 -119.5s20.333 -83.5 24 -139.5s5.5 -139.667 5.5 -251zM1096 721c0 107.333 -1.50098 184.5 -4.50098 231.5s-9.66699 87.667 -20 122s-26.833 67.5 -49.5 99.5c-38.667 52.667 -82.334 90.334 -131.001 113.001s-108 34 -178 34h-316v-524
h330v-121h-330v-539h316c70.667 0 133.334 13 188.001 39s98.334 63.667 131.001 113c29.333 43.333 47.333 89.666 54 138.999s10 147 10 293z" />
    <glyph glyph-name="Ntilde" unicode="&#xd1;" horiz-adv-x="1499" 
d="M1288 0h-147l-774 1169v-1169h-156v1458h147l775 -1165v1165h155v-1458zM1072 1733c-70 -70 -134.999 -105.001 -194.999 -105.001c-25.333 0 -48.333 3.66699 -69 11s-46 19.333 -76 36c-48.667 28.667 -87 43 -115 43c-19.333 0 -37.333 -3.83301 -54 -11.5
s-39 -25.5 -67 -53.5l-76 73c42 42.667 77.5 70.834 106.5 84.501s58.5 20.5 88.5 20.5c28.667 0 53.5 -4 74.5 -12s44.5 -20.333 70.5 -37c43.333 -27.333 81.666 -41 114.999 -41c36.667 0 77 21.667 121 65z" />
    <glyph glyph-name="Ograve" unicode="&#xd2;" horiz-adv-x="1331" 
d="M1176 729c0 -124.667 -2.16406 -217.832 -6.49707 -279.499s-16.5 -118.334 -36.5 -170.001s-51.667 -98.5 -95 -140.5c-100.667 -100.667 -224.667 -151 -372 -151c-148 0 -272.333 50.333 -373 151c-35.333 36 -61.833 71.5 -79.5 106.5s-30.834 75.833 -39.501 122.5
s-13.834 94.5 -15.501 143.5s-2.5 121.5 -2.5 217.5c0 124.667 2.16699 217.834 6.5 279.501s16.166 117.834 35.499 168.501s51 98 95 142c100.667 100.667 225 151 373 151c147.333 0 271.333 -50.333 372 -151c43.333 -42 75 -88.833 95 -140.5
s32.167 -108.334 36.5 -170.001s6.5 -154.834 6.5 -279.501zM1020 729.002c0 93.333 -1 162.666 -3 207.999s-6.33301 85.833 -13 121.5s-16.834 66.834 -30.501 93.501s-32.167 51.667 -55.5 75c-32.667 33.333 -71 59 -115 77s-89.667 27 -137 27
c-48 0 -93.833 -8.83301 -137.5 -26.5s-81.834 -43.5 -114.501 -77.5c-44.667 -46 -73 -100.833 -85 -164.5s-18 -174.834 -18 -333.501c0 -158 6 -268.833 18 -332.5s40.333 -118.834 85 -165.501c32.667 -32.667 70.834 -58.167 114.501 -76.5s89.5 -27.5 137.5 -27.5
c47.333 0 93 9.16699 137 27.5s82.333 43.833 115 76.5c23.333 24.667 41.833 50.334 55.5 77.001s23.834 57.834 30.501 93.501s11 76 13 121s3 113.833 3 206.5zM766.003 1600h-135l-221 313h176z" />
    <glyph glyph-name="Oacute" unicode="&#xd3;" horiz-adv-x="1331" 
d="M1176 729c0 -124.667 -2.16406 -217.832 -6.49707 -279.499s-16.5 -118.334 -36.5 -170.001s-51.667 -98.5 -95 -140.5c-100.667 -100.667 -224.667 -151 -372 -151c-148 0 -272.333 50.333 -373 151c-35.333 36 -61.833 71.5 -79.5 106.5s-30.834 75.833 -39.501 122.5
s-13.834 94.5 -15.501 143.5s-2.5 121.5 -2.5 217.5c0 124.667 2.16699 217.834 6.5 279.501s16.166 117.834 35.499 168.501s51 98 95 142c100.667 100.667 225 151 373 151c147.333 0 271.333 -50.333 372 -151c43.333 -42 75 -88.833 95 -140.5
s32.167 -108.334 36.5 -170.001s6.5 -154.834 6.5 -279.501zM1020 729.002c0 93.333 -1 162.666 -3 207.999s-6.33301 85.833 -13 121.5s-16.834 66.834 -30.501 93.501s-32.167 51.667 -55.5 75c-32.667 33.333 -71 59 -115 77s-89.667 27 -137 27
c-48 0 -93.833 -8.83301 -137.5 -26.5s-81.834 -43.5 -114.501 -77.5c-44.667 -46 -73 -100.833 -85 -164.5s-18 -174.834 -18 -333.501c0 -158 6 -268.833 18 -332.5s40.333 -118.834 85 -165.501c32.667 -32.667 70.834 -58.167 114.501 -76.5s89.5 -27.5 137.5 -27.5
c47.333 0 93 9.16699 137 27.5s82.333 43.833 115 76.5c23.333 24.667 41.833 50.334 55.5 77.001s23.834 57.834 30.501 93.501s11 76 13 121s3 113.833 3 206.5zM922.003 1913l-221 -313h-135l180 313h176z" />
    <glyph glyph-name="Ocircumflex" unicode="&#xd4;" horiz-adv-x="1331" 
d="M1176 729c0 -124.667 -2.16406 -217.832 -6.49707 -279.499s-16.5 -118.334 -36.5 -170.001s-51.667 -98.5 -95 -140.5c-100.667 -100.667 -224.667 -151 -372 -151c-148 0 -272.333 50.333 -373 151c-35.333 36 -61.833 71.5 -79.5 106.5s-30.834 75.833 -39.501 122.5
s-13.834 94.5 -15.501 143.5s-2.5 121.5 -2.5 217.5c0 124.667 2.16699 217.834 6.5 279.501s16.166 117.834 35.499 168.501s51 98 95 142c100.667 100.667 225 151 373 151c147.333 0 271.333 -50.333 372 -151c43.333 -42 75 -88.833 95 -140.5
s32.167 -108.334 36.5 -170.001s6.5 -154.834 6.5 -279.501zM1020 729.002c0 93.333 -1 162.666 -3 207.999s-6.33301 85.833 -13 121.5s-16.834 66.834 -30.501 93.501s-32.167 51.667 -55.5 75c-32.667 33.333 -71 59 -115 77s-89.667 27 -137 27
c-48 0 -93.833 -8.83301 -137.5 -26.5s-81.834 -43.5 -114.501 -77.5c-44.667 -46 -73 -100.833 -85 -164.5s-18 -174.834 -18 -333.501c0 -158 6 -268.833 18 -332.5s40.333 -118.834 85 -165.501c32.667 -32.667 70.834 -58.167 114.501 -76.5s89.5 -27.5 137.5 -27.5
c47.333 0 93 9.16699 137 27.5s82.333 43.833 115 76.5c23.333 24.667 41.833 50.334 55.5 77.001s23.834 57.834 30.501 93.501s11 76 13 121s3 113.833 3 206.5zM992.003 1600h-142l-184 213l-184 -213h-142l256 313h140z" />
    <glyph glyph-name="Otilde" unicode="&#xd5;" horiz-adv-x="1331" 
d="M1176 729c0 -124.667 -2.16406 -217.832 -6.49707 -279.499s-16.5 -118.334 -36.5 -170.001s-51.667 -98.5 -95 -140.5c-100.667 -100.667 -224.667 -151 -372 -151c-148 0 -272.333 50.333 -373 151c-35.333 36 -61.833 71.5 -79.5 106.5s-30.834 75.833 -39.501 122.5
s-13.834 94.5 -15.501 143.5s-2.5 121.5 -2.5 217.5c0 124.667 2.16699 217.834 6.5 279.501s16.166 117.834 35.499 168.501s51 98 95 142c100.667 100.667 225 151 373 151c147.333 0 271.333 -50.333 372 -151c43.333 -42 75 -88.833 95 -140.5
s32.167 -108.334 36.5 -170.001s6.5 -154.834 6.5 -279.501zM1020 729.002c0 93.333 -1 162.666 -3 207.999s-6.33301 85.833 -13 121.5s-16.834 66.834 -30.501 93.501s-32.167 51.667 -55.5 75c-32.667 33.333 -71 59 -115 77s-89.667 27 -137 27
c-48 0 -93.833 -8.83301 -137.5 -26.5s-81.834 -43.5 -114.501 -77.5c-44.667 -46 -73 -100.833 -85 -164.5s-18 -174.834 -18 -333.501c0 -158 6 -268.833 18 -332.5s40.333 -118.834 85 -165.501c32.667 -32.667 70.834 -58.167 114.501 -76.5s89.5 -27.5 137.5 -27.5
c47.333 0 93 9.16699 137 27.5s82.333 43.833 115 76.5c23.333 24.667 41.833 50.334 55.5 77.001s23.834 57.834 30.501 93.501s11 76 13 121s3 113.833 3 206.5zM988.003 1733c-70 -70 -134.999 -105.001 -194.999 -105.001c-25.333 0 -48.333 3.66699 -69 11
s-46 19.333 -76 36c-48.667 28.667 -87 43 -115 43c-19.333 0 -37.333 -3.83301 -54 -11.5s-39 -25.5 -67 -53.5l-76 73c42 42.667 77.5 70.834 106.5 84.501s58.5 20.5 88.5 20.5c28.667 0 53.5 -4 74.5 -12s44.5 -20.333 70.5 -37c43.333 -27.333 81.666 -41 114.999 -41
c36.667 0 77 21.667 121 65z" />
    <glyph glyph-name="Odieresis" unicode="&#xd6;" horiz-adv-x="1331" 
d="M1176 729c0 -124.667 -2.16406 -217.832 -6.49707 -279.499s-16.5 -118.334 -36.5 -170.001s-51.667 -98.5 -95 -140.5c-100.667 -100.667 -224.667 -151 -372 -151c-148 0 -272.333 50.333 -373 151c-35.333 36 -61.833 71.5 -79.5 106.5s-30.834 75.833 -39.501 122.5
s-13.834 94.5 -15.501 143.5s-2.5 121.5 -2.5 217.5c0 124.667 2.16699 217.834 6.5 279.501s16.166 117.834 35.499 168.501s51 98 95 142c100.667 100.667 225 151 373 151c147.333 0 271.333 -50.333 372 -151c43.333 -42 75 -88.833 95 -140.5
s32.167 -108.334 36.5 -170.001s6.5 -154.834 6.5 -279.501zM1020 729.002c0 93.333 -1 162.666 -3 207.999s-6.33301 85.833 -13 121.5s-16.834 66.834 -30.501 93.501s-32.167 51.667 -55.5 75c-32.667 33.333 -71 59 -115 77s-89.667 27 -137 27
c-48 0 -93.833 -8.83301 -137.5 -26.5s-81.834 -43.5 -114.501 -77.5c-44.667 -46 -73 -100.833 -85 -164.5s-18 -174.834 -18 -333.501c0 -158 6 -268.833 18 -332.5s40.333 -118.834 85 -165.501c32.667 -32.667 70.834 -58.167 114.501 -76.5s89.5 -27.5 137.5 -27.5
c47.333 0 93 9.16699 137 27.5s82.333 43.833 115 76.5c23.333 24.667 41.833 50.334 55.5 77.001s23.834 57.834 30.501 93.501s11 76 13 121s3 113.833 3 206.5zM975.003 1704c0 -25.333 -8.66699 -47 -26 -65s-39.333 -27 -66 -27c-25.333 0 -47 9 -65 27
s-27 39.667 -27 65c0 26 9.16699 48.167 27.5 66.5s39.833 27.5 64.5 27.5c26 0 47.833 -9.16699 65.5 -27.5s26.5 -40.5 26.5 -66.5zM541.003 1704c0 -25.333 -8.66699 -47 -26 -65s-39.333 -27 -66 -27c-25.333 0 -47 9 -65 27s-27 39.667 -27 65
c0 26 9.16699 48.167 27.5 66.5s39.833 27.5 64.5 27.5c26 0 47.833 -9.16699 65.5 -27.5s26.5 -40.5 26.5 -66.5z" />
    <glyph glyph-name="multiply" unicode="&#xd7;" horiz-adv-x="1069" 
d="M936 244l-92 -92l-309 309l-310 -309l-92 92l309 309l-309 309l92 92l310 -311l309 311l92 -92l-311 -309z" />
    <glyph glyph-name="Oslash" unicode="&#xd8;" horiz-adv-x="1335" 
d="M1176 729c0 -124.667 -2.16504 -217.832 -6.49805 -279.499s-16.5 -118.334 -36.5 -170.001s-51.667 -98.5 -95 -140.5c-100.667 -100.667 -224.667 -151 -372 -151c-96.667 0 -182.667 21.667 -258 65l-68 -143h-133l102 213c-2 2 -3.33301 3.5 -4 4.5
s-1.66699 2.16699 -3 3.5s-2.66602 2.5 -3.99902 3.5s-3 2.5 -5 4.5c-35.333 36 -61.833 71.5 -79.5 106.5s-30.834 75.833 -39.501 122.5s-13.834 94.5 -15.501 143.5s-2.5 121.5 -2.5 217.5c0 124.667 2.16699 217.834 6.5 279.501s16.166 117.834 35.499 168.501
s51 98 95 142c100.667 100.667 225 151 373 151c96.667 0 182 -21 256 -63l69 141h133l-102 -213l16 -16c43.333 -42 75 -88.833 95 -140.5s32.167 -108.334 36.5 -170.001s6.5 -154.834 6.5 -279.501zM1018 729.002c0 82 -0.500977 143.334 -1.50098 184.001
s-3.83301 78.667 -8.5 114s-11.667 65.833 -21 91.5s-22.333 49.5 -39 71.5l-479 -1004c62 -39.333 127.667 -59 197 -59c47.333 0 93 9.16699 137 27.5s82.333 43.833 115 76.5c30.667 32 52.834 66.5 66.501 103.5s22.667 84.667 27 143s6.5 142.166 6.5 251.499z
M862.001 1272c-60.667 39.333 -126 59.001 -196 59.001c-48 0 -93.833 -8.83301 -137.5 -26.5s-81.834 -43.5 -114.501 -77.5c-44.667 -46 -73 -100.833 -85 -164.5s-18 -174.834 -18 -333.501c0 -142 4.33301 -244.167 13 -306.5s28.334 -113.833 59.001 -154.5z" />
    <glyph glyph-name="Ugrave" unicode="&#xd9;" horiz-adv-x="1397" 
d="M1208 481c0 -72.667 -12.501 -138.834 -37.501 -198.501s-60.167 -111.5 -105.5 -155.5s-99.666 -78.167 -162.999 -102.5s-131.333 -36.5 -204 -36.5c-72 0 -139.167 12 -201.5 36s-116.833 58.167 -163.5 102.5s-82.167 96.333 -106.5 156s-36.5 125.834 -36.5 198.501
v977h156v-964c0 -74 14.5 -138.5 43.5 -193.5s70.333 -97.667 124 -128s115.167 -45.5 184.5 -45.5c70 0 132 15.167 186 45.5s95.667 73.5 125 129.5s44 120 44 192v964h155v-977zM797.999 1600h-135l-221 313h176z" />
    <glyph glyph-name="Uacute" unicode="&#xda;" horiz-adv-x="1397" 
d="M1208 481c0 -72.667 -12.501 -138.834 -37.501 -198.501s-60.167 -111.5 -105.5 -155.5s-99.666 -78.167 -162.999 -102.5s-131.333 -36.5 -204 -36.5c-72 0 -139.167 12 -201.5 36s-116.833 58.167 -163.5 102.5s-82.167 96.333 -106.5 156s-36.5 125.834 -36.5 198.501
v977h156v-964c0 -74 14.5 -138.5 43.5 -193.5s70.333 -97.667 124 -128s115.167 -45.5 184.5 -45.5c70 0 132 15.167 186 45.5s95.667 73.5 125 129.5s44 120 44 192v964h155v-977zM953.999 1913l-221 -313h-135l180 313h176z" />
    <glyph glyph-name="Ucircumflex" unicode="&#xdb;" horiz-adv-x="1397" 
d="M1208 481c0 -72.667 -12.501 -138.834 -37.501 -198.501s-60.167 -111.5 -105.5 -155.5s-99.666 -78.167 -162.999 -102.5s-131.333 -36.5 -204 -36.5c-72 0 -139.167 12 -201.5 36s-116.833 58.167 -163.5 102.5s-82.167 96.333 -106.5 156s-36.5 125.834 -36.5 198.501
v977h156v-964c0 -74 14.5 -138.5 43.5 -193.5s70.333 -97.667 124 -128s115.167 -45.5 184.5 -45.5c70 0 132 15.167 186 45.5s95.667 73.5 125 129.5s44 120 44 192v964h155v-977zM1024 1600h-142l-184 213l-184 -213h-142l256 313h140z" />
    <glyph glyph-name="Udieresis" unicode="&#xdc;" horiz-adv-x="1397" 
d="M1208 481c0 -72.667 -12.501 -138.834 -37.501 -198.501s-60.167 -111.5 -105.5 -155.5s-99.666 -78.167 -162.999 -102.5s-131.333 -36.5 -204 -36.5c-72 0 -139.167 12 -201.5 36s-116.833 58.167 -163.5 102.5s-82.167 96.333 -106.5 156s-36.5 125.834 -36.5 198.501
v977h156v-964c0 -74 14.5 -138.5 43.5 -193.5s70.333 -97.667 124 -128s115.167 -45.5 184.5 -45.5c70 0 132 15.167 186 45.5s95.667 73.5 125 129.5s44 120 44 192v964h155v-977zM1007 1704c0 -25.333 -8.66699 -47 -26 -65s-39.333 -27 -66 -27c-25.333 0 -47 9 -65 27
s-27 39.667 -27 65c0 26 9.16699 48.167 27.5 66.5s39.833 27.5 64.5 27.5c26 0 47.833 -9.16699 65.5 -27.5s26.5 -40.5 26.5 -66.5zM572.999 1704c0 -25.333 -8.66699 -47 -26 -65s-39.333 -27 -66 -27c-25.333 0 -47 9 -65 27s-27 39.667 -27 65
c0 26 9.16699 48.167 27.5 66.5s39.833 27.5 64.5 27.5c26 0 47.833 -9.16699 65.5 -27.5s26.5 -40.5 26.5 -66.5z" />
    <glyph glyph-name="Yacute" unicode="&#xdd;" horiz-adv-x="1053" 
d="M1036 1458l-430 -856v-602h-155v602l-435 856h168l344 -698l340 698h168zM782 1913l-221 -313h-135l180 313h176z" />
    <glyph glyph-name="Thorn" unicode="&#xde;" horiz-adv-x="1315" 
d="M1204 735c0 -85.333 -18.835 -160.501 -56.502 -225.501s-90.5 -115 -158.5 -150s-146.333 -52.5 -235 -52.5h-387v-307h-156v1458h156v-293h387c66.667 0 127.834 -10.167 183.501 -30.5s103.334 -49.166 143.001 -86.499s70.167 -82.333 91.5 -135s32 -112 32 -178z
M1049 734.999c0 62 -13 114.999 -39 158.999s-62.5 76.667 -109.5 98s-100.833 32 -161.5 32h-372v-578h372c60.667 0 114.667 10.833 162 32.5s83.833 54.334 109.5 98.001s38.5 96.5 38.5 158.5z" />
    <glyph glyph-name="germandbls" unicode="&#xdf;" horiz-adv-x="1139" 
d="M991 289c0 -95.333 -26.668 -167.002 -80.001 -215.002c-28 -26 -58.5 -44.833 -91.5 -56.5s-72.833 -17.5 -119.5 -17.5h-110v127h82c28.667 0 51.167 2.83301 67.5 8.5s34.166 16.5 53.499 32.5c34 28.667 51 74.334 51 137.001v346c0 56 -14.333 98.333 -43 127
s-69 43 -121 43h-90v123h74c53.333 0 96.666 17 129.999 51s50 79 50 135c0 29.333 -5.83301 58 -17.5 86s-27.167 50.667 -46.5 68c-41.333 39.333 -105.333 59 -192 59c-60 0 -108.667 -11.333 -146 -34s-64.666 -54.667 -81.999 -96s-26 -90 -26 -146v-1067h-150v1073
c0 83.333 16.667 155.166 50 215.499s81.333 106.166 144 137.499s135.334 47 218.001 47c57.333 0 109 -6.5 155 -19.5s87.5 -33.667 124.5 -62s65.5 -64.166 85.5 -107.499s30 -93.666 30 -150.999c0 -107.333 -43 -188.666 -129 -243.999
c48.667 -25.333 82.334 -55.833 101.001 -91.5s28 -87.167 28 -154.5v-354z" />
    <glyph glyph-name="agrave" unicode="&#xe0;" horiz-adv-x="1077" 
d="M903 0l-147 0.000976562v96c-40.667 -40.667 -82.667 -68.834 -126 -84.501s-98.333 -23.5 -165 -23.5c-68 0 -124.667 7.16699 -170 21.5s-83.666 37.833 -114.999 70.5c-50.667 50.667 -76 119 -76 205c0 90 30.167 160.833 90.5 212.5s146.5 77.5 258.5 77.5h303v97
c0 75.333 -20.167 131 -60.5 167s-106.166 54 -197.499 54c-63.333 0 -113.833 -8.5 -151.5 -25.5s-71.834 -46.833 -102.501 -89.5l-101 92c28.667 37.333 60.334 67.166 95.001 89.499s73.167 38 115.5 47s91.166 13.5 146.499 13.5c69.333 0 129 -7.16699 179 -21.5
s91.667 -35.666 125 -63.999s58.166 -63 74.499 -104s24.5 -89.833 24.5 -146.5v-684zM756 356.001l0.00195312 109h-283c-150 0 -225 -59.333 -225 -178c0 -58 18.667 -101.167 56 -129.5s95.666 -42.5 174.999 -42.5c50.667 0 93.667 4.16699 129 12.5
s67.666 26.5 96.999 54.5c34 32.667 51 90.667 51 174zM616.002 1217h-135l-221 313h176z" />
    <glyph glyph-name="aacute" unicode="&#xe1;" horiz-adv-x="1077" 
d="M903 0l-147 0.000976562v96c-40.667 -40.667 -82.667 -68.834 -126 -84.501s-98.333 -23.5 -165 -23.5c-68 0 -124.667 7.16699 -170 21.5s-83.666 37.833 -114.999 70.5c-50.667 50.667 -76 119 -76 205c0 90 30.167 160.833 90.5 212.5s146.5 77.5 258.5 77.5h303v97
c0 75.333 -20.167 131 -60.5 167s-106.166 54 -197.499 54c-63.333 0 -113.833 -8.5 -151.5 -25.5s-71.834 -46.833 -102.501 -89.5l-101 92c28.667 37.333 60.334 67.166 95.001 89.499s73.167 38 115.5 47s91.166 13.5 146.499 13.5c69.333 0 129 -7.16699 179 -21.5
s91.667 -35.666 125 -63.999s58.166 -63 74.499 -104s24.5 -89.833 24.5 -146.5v-684zM756 356.001l0.00195312 109h-283c-150 0 -225 -59.333 -225 -178c0 -58 18.667 -101.167 56 -129.5s95.666 -42.5 174.999 -42.5c50.667 0 93.667 4.16699 129 12.5
s67.666 26.5 96.999 54.5c34 32.667 51 90.667 51 174zM772.002 1530l-221 -313h-135l180 313h176z" />
    <glyph glyph-name="acircumflex" unicode="&#xe2;" horiz-adv-x="1077" 
d="M903 0l-147 0.000976562v96c-40.667 -40.667 -82.667 -68.834 -126 -84.501s-98.333 -23.5 -165 -23.5c-68 0 -124.667 7.16699 -170 21.5s-83.666 37.833 -114.999 70.5c-50.667 50.667 -76 119 -76 205c0 90 30.167 160.833 90.5 212.5s146.5 77.5 258.5 77.5h303v97
c0 75.333 -20.167 131 -60.5 167s-106.166 54 -197.499 54c-63.333 0 -113.833 -8.5 -151.5 -25.5s-71.834 -46.833 -102.501 -89.5l-101 92c28.667 37.333 60.334 67.166 95.001 89.499s73.167 38 115.5 47s91.166 13.5 146.499 13.5c69.333 0 129 -7.16699 179 -21.5
s91.667 -35.666 125 -63.999s58.166 -63 74.499 -104s24.5 -89.833 24.5 -146.5v-684zM756 356.001l0.00195312 109h-283c-150 0 -225 -59.333 -225 -178c0 -58 18.667 -101.167 56 -129.5s95.666 -42.5 174.999 -42.5c50.667 0 93.667 4.16699 129 12.5
s67.666 26.5 96.999 54.5c34 32.667 51 90.667 51 174zM842.002 1217h-142l-184 213l-184 -213h-142l256 313h140z" />
    <glyph glyph-name="atilde" unicode="&#xe3;" horiz-adv-x="1077" 
d="M903 0l-147 0.000976562v96c-40.667 -40.667 -82.667 -68.834 -126 -84.501s-98.333 -23.5 -165 -23.5c-68 0 -124.667 7.16699 -170 21.5s-83.666 37.833 -114.999 70.5c-50.667 50.667 -76 119 -76 205c0 90 30.167 160.833 90.5 212.5s146.5 77.5 258.5 77.5h303v97
c0 75.333 -20.167 131 -60.5 167s-106.166 54 -197.499 54c-63.333 0 -113.833 -8.5 -151.5 -25.5s-71.834 -46.833 -102.501 -89.5l-101 92c28.667 37.333 60.334 67.166 95.001 89.499s73.167 38 115.5 47s91.166 13.5 146.499 13.5c69.333 0 129 -7.16699 179 -21.5
s91.667 -35.666 125 -63.999s58.166 -63 74.499 -104s24.5 -89.833 24.5 -146.5v-684zM756 356.001l0.00195312 109h-283c-150 0 -225 -59.333 -225 -178c0 -58 18.667 -101.167 56 -129.5s95.666 -42.5 174.999 -42.5c50.667 0 93.667 4.16699 129 12.5
s67.666 26.5 96.999 54.5c34 32.667 51 90.667 51 174zM838.002 1350c-70 -70 -134.999 -105.001 -194.999 -105.001c-25.333 0 -48.333 3.66699 -69 11s-46 19.333 -76 36c-48.667 28.667 -87 43 -115 43c-19.333 0 -37.333 -3.83301 -54 -11.5s-39 -25.5 -67 -53.5l-76 73
c42 42.667 77.5 70.834 106.5 84.501s58.5 20.5 88.5 20.5c28.667 0 53.5 -4 74.5 -12s44.5 -20.333 70.5 -37c43.333 -27.333 81.666 -41 114.999 -41c36.667 0 77 21.667 121 65z" />
    <glyph glyph-name="adieresis" unicode="&#xe4;" horiz-adv-x="1077" 
d="M903 0l-147 0.000976562v96c-40.667 -40.667 -82.667 -68.834 -126 -84.501s-98.333 -23.5 -165 -23.5c-68 0 -124.667 7.16699 -170 21.5s-83.666 37.833 -114.999 70.5c-50.667 50.667 -76 119 -76 205c0 90 30.167 160.833 90.5 212.5s146.5 77.5 258.5 77.5h303v97
c0 75.333 -20.167 131 -60.5 167s-106.166 54 -197.499 54c-63.333 0 -113.833 -8.5 -151.5 -25.5s-71.834 -46.833 -102.501 -89.5l-101 92c28.667 37.333 60.334 67.166 95.001 89.499s73.167 38 115.5 47s91.166 13.5 146.499 13.5c69.333 0 129 -7.16699 179 -21.5
s91.667 -35.666 125 -63.999s58.166 -63 74.499 -104s24.5 -89.833 24.5 -146.5v-684zM756 356.001l0.00195312 109h-283c-150 0 -225 -59.333 -225 -178c0 -58 18.667 -101.167 56 -129.5s95.666 -42.5 174.999 -42.5c50.667 0 93.667 4.16699 129 12.5
s67.666 26.5 96.999 54.5c34 32.667 51 90.667 51 174zM825.002 1321c0 -25.333 -8.66699 -47 -26 -65s-39.333 -27 -66 -27c-25.333 0 -47 9 -65 27s-27 39.667 -27 65c0 26 9.16699 48.167 27.5 66.5s39.833 27.5 64.5 27.5c26 0 47.833 -9.16699 65.5 -27.5
s26.5 -40.5 26.5 -66.5zM391.002 1321c0 -25.333 -8.66699 -47 -26 -65s-39.333 -27 -66 -27c-25.333 0 -47 9 -65 27s-27 39.667 -27 65c0 26 9.16699 48.167 27.5 66.5s39.833 27.5 64.5 27.5c26 0 47.833 -9.16699 65.5 -27.5s26.5 -40.5 26.5 -66.5z" />
    <glyph glyph-name="aring" unicode="&#xe5;" horiz-adv-x="1077" 
d="M903 0l-147 0.000976562v96c-40.667 -40.667 -82.667 -68.834 -126 -84.501s-98.333 -23.5 -165 -23.5c-68 0 -124.667 7.16699 -170 21.5s-83.666 37.833 -114.999 70.5c-50.667 50.667 -76 119 -76 205c0 90 30.167 160.833 90.5 212.5s146.5 77.5 258.5 77.5h303v97
c0 75.333 -20.167 131 -60.5 167s-106.166 54 -197.499 54c-63.333 0 -113.833 -8.5 -151.5 -25.5s-71.834 -46.833 -102.501 -89.5l-101 92c28.667 37.333 60.334 67.166 95.001 89.499s73.167 38 115.5 47s91.166 13.5 146.499 13.5c69.333 0 129 -7.16699 179 -21.5
s91.667 -35.666 125 -63.999s58.166 -63 74.499 -104s24.5 -89.833 24.5 -146.5v-684zM756 356.001l0.00195312 109h-283c-150 0 -225 -59.333 -225 -178c0 -58 18.667 -101.167 56 -129.5s95.666 -42.5 174.999 -42.5c50.667 0 93.667 4.16699 129 12.5
s67.666 26.5 96.999 54.5c34 32.667 51 90.667 51 174zM758.002 1407c0 -43.333 -10.999 -83.833 -32.999 -121.5s-51.333 -67.5 -88 -89.5s-77 -33 -121 -33s-84.333 11 -121 33s-66 51.833 -88 89.5s-33 78.167 -33 121.5c0 66.667 23.667 123.667 71 171
s104.333 71 171 71c43.333 0 83.666 -10.667 120.999 -32s66.833 -50.5 88.5 -87.5s32.5 -77.833 32.5 -122.5zM657.003 1407c0 38.667 -13.8311 71.5 -41.498 98.5s-60.834 40.5 -99.501 40.5s-71.834 -13.5 -99.501 -40.5s-41.5 -59.833 -41.5 -98.5c0 -38 14 -71 42 -99
s61 -42 99 -42s71 14 99 42s42 61 42 99z" />
    <glyph glyph-name="ae" unicode="&#xe6;" horiz-adv-x="1710" 
d="M1583 465l-682.001 0.000976562c0 -72.667 11.5 -135.167 34.5 -187.5s57 -92.166 102 -119.499s99.167 -41 162.5 -41c55.333 0 102.166 8.66699 140.499 26s78.833 46.666 121.5 87.999l103 -88c-34 -34 -69.167 -62.667 -105.5 -86s-76.333 -40.666 -120 -51.999
s-92.834 -17 -147.501 -17c-167.333 0 -286.666 58 -357.999 174c-31.333 -43.333 -64.333 -77.833 -99 -103.5s-73.667 -43.834 -117 -54.501s-94.333 -16 -153 -16c-68 0 -124.667 7.16699 -170 21.5s-83.666 37.833 -114.999 70.5c-50.667 50.667 -76 119 -76 205
c0 90 30.167 160.833 90.5 212.5s146.5 77.5 258.5 77.5h303v97c0 75.333 -20.167 131 -60.5 167s-106.166 54 -197.499 54c-63.333 0 -113.833 -8.5 -151.5 -25.5s-71.834 -46.833 -102.501 -89.5l-101 92c28.667 37.333 60.334 67.166 95.001 89.499s73.167 38 115.5 47
s91.166 13.5 146.499 13.5c92 0 167.333 -13.167 226 -39.5s101.334 -65.833 128.001 -118.5c71.333 105.333 176.333 158 315 158c64 0 122 -11.167 174 -33.5s95.833 -54.833 131.5 -97.5s62.667 -93.667 81 -153s27.5 -127.333 27.5 -204v-67zM1436 575.001
c-3.33301 68.667 -13.666 124.666 -30.999 167.999c-18.667 46.667 -49.334 83.667 -92.001 111s-90.667 41 -144 41c-52 0 -99.167 -13.5 -141.5 -40.5s-73.5 -64.167 -93.5 -111.5c-12 -29.333 -20 -55.666 -24 -78.999s-7 -53 -9 -89h535zM755.999 356l0.00195312 109
h-283c-150 0 -225 -59.333 -225 -178c0 -58 18.667 -101.167 56 -129.5s95.666 -42.5 174.999 -42.5c50.667 0 93.667 4.16699 129 12.5s67.666 26.5 96.999 54.5c34 32.667 51 90.667 51 174z" />
    <glyph glyph-name="ccedilla" unicode="&#xe7;" horiz-adv-x="1012" 
d="M907 137c-50.667 -54.667 -101 -93.168 -151 -115.501s-110.333 -33.5 -181 -33.5c-62.667 0 -121.5 11 -176.5 33s-102.5 54.5 -142.5 97.5s-71.167 97 -93.5 162s-33.5 139.5 -33.5 223.5c0 110.667 19.333 205 58 283s91.667 136.333 159 175s143.666 58 228.999 58
c71.333 0 131.833 -11.167 181.5 -33.5s99.834 -61.166 150.501 -116.499l-100 -94c-37.333 41.333 -73 70.5 -107 87.5s-75.667 25.5 -125 25.5c-102 0 -179.667 -38.333 -233 -115c-23.333 -32.667 -40.166 -70.167 -50.499 -112.5s-15.5 -94.833 -15.5 -157.5
c0 -62 5.16699 -114.167 15.5 -156.5s27.166 -80.5 50.499 -114.5c54 -76 131.667 -114 233 -114c48 0 88.833 8.5 122.5 25.5s70.167 46.5 109.5 88.5zM641 -137.001l-121 -305h-162l146 305h137z" />
    <glyph glyph-name="egrave" unicode="&#xe8;" 
d="M956 465l-680 0.00292969c0 -110.667 25.833 -196.334 77.5 -257.001s124.834 -91 219.501 -91c56 0 103.667 8.66699 143 26s80 46.666 122 87.999l100 -88c-54.667 -54.667 -109.167 -94.167 -163.5 -118.5s-122.833 -36.5 -205.5 -36.5
c-88.667 0 -166.167 18.333 -232.5 55s-117.5 93.667 -153.5 171s-54 174 -54 290c0 81.333 9.5 153.666 28.5 216.999s46.5 117.333 82.5 162s79.667 78.667 131 102s108.666 35 171.999 35c85.333 0 159.333 -19.833 222 -59.5s110.167 -96.5 142.5 -170.5
s48.5 -160 48.5 -258v-67zM809 575.003c-3.33301 70.667 -13.667 126.667 -31 168c-18.667 46 -49.5 82.833 -92.5 110.5s-90.5 41.5 -142.5 41.5c-52.667 0 -100.167 -13.5 -142.5 -40.5s-73.5 -64.167 -93.5 -111.5c-16 -40.667 -26.333 -96.667 -31 -168h533z
M648.999 1217h-135l-221 313h176z" />
    <glyph glyph-name="eacute" unicode="&#xe9;" 
d="M956 465l-680 0.00292969c0 -110.667 25.833 -196.334 77.5 -257.001s124.834 -91 219.501 -91c56 0 103.667 8.66699 143 26s80 46.666 122 87.999l100 -88c-54.667 -54.667 -109.167 -94.167 -163.5 -118.5s-122.833 -36.5 -205.5 -36.5
c-88.667 0 -166.167 18.333 -232.5 55s-117.5 93.667 -153.5 171s-54 174 -54 290c0 81.333 9.5 153.666 28.5 216.999s46.5 117.333 82.5 162s79.667 78.667 131 102s108.666 35 171.999 35c85.333 0 159.333 -19.833 222 -59.5s110.167 -96.5 142.5 -170.5
s48.5 -160 48.5 -258v-67zM809 575.003c-3.33301 70.667 -13.667 126.667 -31 168c-18.667 46 -49.5 82.833 -92.5 110.5s-90.5 41.5 -142.5 41.5c-52.667 0 -100.167 -13.5 -142.5 -40.5s-73.5 -64.167 -93.5 -111.5c-16 -40.667 -26.333 -96.667 -31 -168h533z
M804.999 1530l-221 -313h-135l180 313h176z" />
    <glyph glyph-name="ecircumflex" unicode="&#xea;" 
d="M956 465l-680 0.00292969c0 -110.667 25.833 -196.334 77.5 -257.001s124.834 -91 219.501 -91c56 0 103.667 8.66699 143 26s80 46.666 122 87.999l100 -88c-54.667 -54.667 -109.167 -94.167 -163.5 -118.5s-122.833 -36.5 -205.5 -36.5
c-88.667 0 -166.167 18.333 -232.5 55s-117.5 93.667 -153.5 171s-54 174 -54 290c0 81.333 9.5 153.666 28.5 216.999s46.5 117.333 82.5 162s79.667 78.667 131 102s108.666 35 171.999 35c85.333 0 159.333 -19.833 222 -59.5s110.167 -96.5 142.5 -170.5
s48.5 -160 48.5 -258v-67zM809 575.003c-3.33301 70.667 -13.667 126.667 -31 168c-18.667 46 -49.5 82.833 -92.5 110.5s-90.5 41.5 -142.5 41.5c-52.667 0 -100.167 -13.5 -142.5 -40.5s-73.5 -64.167 -93.5 -111.5c-16 -40.667 -26.333 -96.667 -31 -168h533z
M874.999 1217h-142l-184 213l-184 -213h-142l256 313h140z" />
    <glyph glyph-name="edieresis" unicode="&#xeb;" 
d="M956 465l-680 0.00292969c0 -110.667 25.833 -196.334 77.5 -257.001s124.834 -91 219.501 -91c56 0 103.667 8.66699 143 26s80 46.666 122 87.999l100 -88c-54.667 -54.667 -109.167 -94.167 -163.5 -118.5s-122.833 -36.5 -205.5 -36.5
c-88.667 0 -166.167 18.333 -232.5 55s-117.5 93.667 -153.5 171s-54 174 -54 290c0 81.333 9.5 153.666 28.5 216.999s46.5 117.333 82.5 162s79.667 78.667 131 102s108.666 35 171.999 35c85.333 0 159.333 -19.833 222 -59.5s110.167 -96.5 142.5 -170.5
s48.5 -160 48.5 -258v-67zM809 575.003c-3.33301 70.667 -13.667 126.667 -31 168c-18.667 46 -49.5 82.833 -92.5 110.5s-90.5 41.5 -142.5 41.5c-52.667 0 -100.167 -13.5 -142.5 -40.5s-73.5 -64.167 -93.5 -111.5c-16 -40.667 -26.333 -96.667 -31 -168h533z
M857.999 1321c0 -25.333 -8.66699 -47 -26 -65s-39.333 -27 -66 -27c-25.333 0 -47 9 -65 27s-27 39.667 -27 65c0 26 9.16699 48.167 27.5 66.5s39.833 27.5 64.5 27.5c26 0 47.833 -9.16699 65.5 -27.5s26.5 -40.5 26.5 -66.5zM423.999 1321
c0 -25.333 -8.66699 -47 -26 -65s-39.333 -27 -66 -27c-25.333 0 -47 9 -65 27s-27 39.667 -27 65c0 26 9.16699 48.167 27.5 66.5s39.833 27.5 64.5 27.5c26 0 47.833 -9.16699 65.5 -27.5s26.5 -40.5 26.5 -66.5z" />
    <glyph glyph-name="igrave" unicode="&#xec;" horiz-adv-x="518" 
d="M332 0h-148v1008h148v-1008zM393 1217h-135l-221 313h176z" />
    <glyph glyph-name="iacute" unicode="&#xed;" horiz-adv-x="518" 
d="M332 0h-148v1008h148v-1008zM492 1530l-221 -313h-135l180 313h176z" />
    <glyph glyph-name="icircumflex" unicode="&#xee;" horiz-adv-x="518" 
d="M332 0h-148v1008h148v-1008zM584 1217h-142l-184 213l-184 -213h-142l256 313h140z" />
    <glyph glyph-name="idieresis" unicode="&#xef;" horiz-adv-x="518" 
d="M332 0h-148v1008h148v-1008zM563 1321c0 -25.333 -8.66699 -47 -26 -65s-39.333 -27 -66 -27c-25.333 0 -47 9 -65 27s-27 39.667 -27 65c0 26 9.16699 48.167 27.5 66.5s39.833 27.5 64.5 27.5c26 0 47.833 -9.16699 65.5 -27.5s26.5 -40.5 26.5 -66.5zM129 1321
c0 -25.333 -8.66699 -47 -26 -65s-39.333 -27 -66 -27c-25.333 0 -47 9 -65 27s-27 39.667 -27 65c0 26 9.16699 48.167 27.5 66.5s39.833 27.5 64.5 27.5c26 0 47.833 -9.16699 65.5 -27.5s26.5 -40.5 26.5 -66.5z" />
    <glyph glyph-name="eth" unicode="&#xf0;" 
d="M952 500c0 -88 -8.66602 -164.832 -25.999 -230.499s-49.666 -122.167 -96.999 -169.5c-72.667 -74.667 -168 -112 -286 -112s-213.667 37.333 -287 112c-32.667 32.667 -57.667 69.667 -75 111s-29.333 85.333 -36 132s-10 99 -10 157
c0 58.667 3.33301 111.167 10 157.5s18.5 89.833 35.5 130.5s42.167 77.667 75.5 111c61.333 64 144.666 99.667 249.999 107c72 0 123 -7 153 -21l-118 203h-238v106h180l-96 168h154l96 -168h168v-106h-111l129 -227c53.333 -91.333 88.166 -167.833 104.499 -229.5
s24.5 -138.834 24.5 -231.501zM805.001 500.001c0 73.333 -4.99902 134.833 -14.999 184.5s-31.667 91.167 -65 124.5c-49.333 49.333 -110 74 -182 74c-70 0 -130.333 -24.667 -181 -74c-32.667 -33.333 -54 -75.833 -64 -127.5s-15 -112.167 -15 -181.5
s5 -129.5 15 -180.5s31.333 -93.167 64 -126.5c49.333 -49.333 109.666 -74 180.999 -74c73.333 0 134 24.667 182 74c33.333 33.333 55 74.5 65 123.5s15 110.167 15 183.5z" />
    <glyph glyph-name="ntilde" unicode="&#xf1;" horiz-adv-x="1153" 
d="M977 0l-148.001 0.00195312v621c0 44 -6 83.333 -18 118s-28.167 62.667 -48.5 84s-45.5 37.666 -75.5 48.999s-65 17 -105 17c-77.333 0 -138.333 -23.167 -183 -69.5s-67 -112.5 -67 -198.5v-621h-148v1008h148v-111c36.667 41.333 78.334 72.166 125.001 92.499
s99 30.5 157 30.5c109.333 0 195.333 -31.333 258 -94c70 -68 105 -161.667 105 -281v-645zM905.999 1350c-70 -70 -134.999 -105.001 -194.999 -105.001c-25.333 0 -48.333 3.66699 -69 11s-46 19.333 -76 36c-48.667 28.667 -87 43 -115 43
c-19.333 0 -37.333 -3.83301 -54 -11.5s-39 -25.5 -67 -53.5l-76 73c42 42.667 77.5 70.834 106.5 84.501s58.5 20.5 88.5 20.5c28.667 0 53.5 -4 74.5 -12s44.5 -20.333 70.5 -37c43.333 -27.333 81.666 -41 114.999 -41c36.667 0 77 21.667 121 65z" />
    <glyph glyph-name="ograve" unicode="&#xf2;" 
d="M954 504c0 -58.667 -3.16699 -110.833 -9.5 -156.5s-18.666 -89.667 -36.999 -132s-43.833 -80.166 -76.5 -113.499c-76 -76 -172 -114 -288 -114c-115.333 0 -211.666 38 -288.999 114c-32.667 33.333 -58 70.666 -76 111.999s-30.333 85.333 -37 132
s-10 99.334 -10 158.001c0 88.667 8.66699 165.5 26 230.5s49.666 121.833 96.999 170.5c76.667 76.667 173 115 289 115c116.667 0 212.667 -38.333 288 -115c47.333 -47.333 79.666 -103.833 96.999 -169.5s26 -142.834 26 -231.501zM807 504.001
c0 73.333 -5.16797 135.332 -15.501 185.999s-31.833 92.334 -64.5 125.001c-49.333 49.333 -110.666 74 -183.999 74c-71.333 0 -132.333 -24.667 -183 -74c-33.333 -34 -55.166 -76.833 -65.499 -128.5s-15.5 -112.5 -15.5 -182.5c0 -70.667 5.16699 -131.667 15.5 -183
s32.166 -94 65.499 -128c49.333 -49.333 110.333 -74 183 -74c74.667 0 136 24.667 184 74c33.333 33.333 55 75 65 125s15 112 15 186zM621.999 1217h-135l-221 313h176z" />
    <glyph glyph-name="oacute" unicode="&#xf3;" 
d="M954 504c0 -58.667 -3.16699 -110.833 -9.5 -156.5s-18.666 -89.667 -36.999 -132s-43.833 -80.166 -76.5 -113.499c-76 -76 -172 -114 -288 -114c-115.333 0 -211.666 38 -288.999 114c-32.667 33.333 -58 70.666 -76 111.999s-30.333 85.333 -37 132
s-10 99.334 -10 158.001c0 88.667 8.66699 165.5 26 230.5s49.666 121.833 96.999 170.5c76.667 76.667 173 115 289 115c116.667 0 212.667 -38.333 288 -115c47.333 -47.333 79.666 -103.833 96.999 -169.5s26 -142.834 26 -231.501zM807 504.001
c0 73.333 -5.16797 135.332 -15.501 185.999s-31.833 92.334 -64.5 125.001c-49.333 49.333 -110.666 74 -183.999 74c-71.333 0 -132.333 -24.667 -183 -74c-33.333 -34 -55.166 -76.833 -65.499 -128.5s-15.5 -112.5 -15.5 -182.5c0 -70.667 5.16699 -131.667 15.5 -183
s32.166 -94 65.499 -128c49.333 -49.333 110.333 -74 183 -74c74.667 0 136 24.667 184 74c33.333 33.333 55 75 65 125s15 112 15 186zM798.999 1530l-221 -313h-135l180 313h176z" />
    <glyph glyph-name="ocircumflex" unicode="&#xf4;" 
d="M954 504c0 -58.667 -3.16699 -110.833 -9.5 -156.5s-18.666 -89.667 -36.999 -132s-43.833 -80.166 -76.5 -113.499c-76 -76 -172 -114 -288 -114c-115.333 0 -211.666 38 -288.999 114c-32.667 33.333 -58 70.666 -76 111.999s-30.333 85.333 -37 132
s-10 99.334 -10 158.001c0 88.667 8.66699 165.5 26 230.5s49.666 121.833 96.999 170.5c76.667 76.667 173 115 289 115c116.667 0 212.667 -38.333 288 -115c47.333 -47.333 79.666 -103.833 96.999 -169.5s26 -142.834 26 -231.501zM807 504.001
c0 73.333 -5.16797 135.332 -15.501 185.999s-31.833 92.334 -64.5 125.001c-49.333 49.333 -110.666 74 -183.999 74c-71.333 0 -132.333 -24.667 -183 -74c-33.333 -34 -55.166 -76.833 -65.499 -128.5s-15.5 -112.5 -15.5 -182.5c0 -70.667 5.16699 -131.667 15.5 -183
s32.166 -94 65.499 -128c49.333 -49.333 110.333 -74 183 -74c74.667 0 136 24.667 184 74c33.333 33.333 55 75 65 125s15 112 15 186zM868.999 1217h-142l-184 213l-184 -213h-142l256 313h140z" />
    <glyph glyph-name="otilde" unicode="&#xf5;" 
d="M954 504c0 -58.667 -3.16699 -110.833 -9.5 -156.5s-18.666 -89.667 -36.999 -132s-43.833 -80.166 -76.5 -113.499c-76 -76 -172 -114 -288 -114c-115.333 0 -211.666 38 -288.999 114c-32.667 33.333 -58 70.666 -76 111.999s-30.333 85.333 -37 132
s-10 99.334 -10 158.001c0 88.667 8.66699 165.5 26 230.5s49.666 121.833 96.999 170.5c76.667 76.667 173 115 289 115c116.667 0 212.667 -38.333 288 -115c47.333 -47.333 79.666 -103.833 96.999 -169.5s26 -142.834 26 -231.501zM807 504.001
c0 73.333 -5.16797 135.332 -15.501 185.999s-31.833 92.334 -64.5 125.001c-49.333 49.333 -110.666 74 -183.999 74c-71.333 0 -132.333 -24.667 -183 -74c-33.333 -34 -55.166 -76.833 -65.499 -128.5s-15.5 -112.5 -15.5 -182.5c0 -70.667 5.16699 -131.667 15.5 -183
s32.166 -94 65.499 -128c49.333 -49.333 110.333 -74 183 -74c74.667 0 136 24.667 184 74c33.333 33.333 55 75 65 125s15 112 15 186zM864.999 1350c-70 -70 -134.999 -105.001 -194.999 -105.001c-25.333 0 -48.333 3.66699 -69 11s-46 19.333 -76 36
c-48.667 28.667 -87 43 -115 43c-19.333 0 -37.333 -3.83301 -54 -11.5s-39 -25.5 -67 -53.5l-76 73c42 42.667 77.5 70.834 106.5 84.501s58.5 20.5 88.5 20.5c28.667 0 53.5 -4 74.5 -12s44.5 -20.333 70.5 -37c43.333 -27.333 81.666 -41 114.999 -41
c36.667 0 77 21.667 121 65z" />
    <glyph glyph-name="odieresis" unicode="&#xf6;" 
d="M954 504c0 -58.667 -3.16699 -110.833 -9.5 -156.5s-18.666 -89.667 -36.999 -132s-43.833 -80.166 -76.5 -113.499c-76 -76 -172 -114 -288 -114c-115.333 0 -211.666 38 -288.999 114c-32.667 33.333 -58 70.666 -76 111.999s-30.333 85.333 -37 132
s-10 99.334 -10 158.001c0 88.667 8.66699 165.5 26 230.5s49.666 121.833 96.999 170.5c76.667 76.667 173 115 289 115c116.667 0 212.667 -38.333 288 -115c47.333 -47.333 79.666 -103.833 96.999 -169.5s26 -142.834 26 -231.501zM807 504.001
c0 73.333 -5.16797 135.332 -15.501 185.999s-31.833 92.334 -64.5 125.001c-49.333 49.333 -110.666 74 -183.999 74c-71.333 0 -132.333 -24.667 -183 -74c-33.333 -34 -55.166 -76.833 -65.499 -128.5s-15.5 -112.5 -15.5 -182.5c0 -70.667 5.16699 -131.667 15.5 -183
s32.166 -94 65.499 -128c49.333 -49.333 110.333 -74 183 -74c74.667 0 136 24.667 184 74c33.333 33.333 55 75 65 125s15 112 15 186zM851.999 1321c0 -25.333 -8.66699 -47 -26 -65s-39.333 -27 -66 -27c-25.333 0 -47 9 -65 27s-27 39.667 -27 65
c0 26 9.16699 48.167 27.5 66.5s39.833 27.5 64.5 27.5c26 0 47.833 -9.16699 65.5 -27.5s26.5 -40.5 26.5 -66.5zM417.999 1321c0 -25.333 -8.66699 -47 -26 -65s-39.333 -27 -66 -27c-25.333 0 -47 9 -65 27s-27 39.667 -27 65c0 26 9.16699 48.167 27.5 66.5
s39.833 27.5 64.5 27.5c26 0 47.833 -9.16699 65.5 -27.5s26.5 -40.5 26.5 -66.5z" />
    <glyph glyph-name="divide" unicode="&#xf7;" horiz-adv-x="1069" 
d="M651 920c0 -31.333 -11.335 -58.6641 -34.002 -81.9971s-50 -35 -82 -35c-31.333 0 -58.666 11.667 -81.999 35s-35 50.666 -35 81.999c0 32 11.667 59.333 35 82s50.666 34 81.999 34c20.667 0 39.834 -5.33301 57.501 -16s31.834 -24.834 42.501 -42.501
s16 -36.834 16 -57.501zM964.998 483.002h-861v138h861v-138zM650.998 184.002c0 -30.667 -11.334 -57.667 -34.001 -81s-50 -35 -82 -35c-31.333 0 -58.666 11.667 -81.999 35s-35 50.333 -35 81c0 32 11.5 59.5 34.5 82.5s50.5 34.5 82.5 34.5
c32.667 0 60.167 -11.5 82.5 -34.5s33.5 -50.5 33.5 -82.5z" />
    <glyph glyph-name="oslash" unicode="&#xf8;" 
d="M954 504c0 -58.667 -3.16797 -110.834 -9.50098 -156.501s-18.666 -89.667 -36.999 -132s-43.833 -80.166 -76.5 -113.499c-76 -76 -172 -114 -288 -114c-81.333 0 -153 18.333 -215 55l-78 -133h-117l117 196c-31.333 32 -55.833 69 -73.5 111s-29.667 85.667 -36 131
s-9.5 97.333 -9.5 156c0 88.667 8.66699 165.5 26 230.5s49.666 121.833 96.999 170.5c76.667 76.667 173 115 289 115c78.667 0 150.334 -18.333 215.001 -55l80 133h114l-116 -197c46 -48 77.167 -104.5 93.5 -169.5s24.5 -140.833 24.5 -227.5zM806.999 504
c0 127.333 -16.333 218 -49 272l-363 -612c42.667 -30 92 -45 148 -45c74.667 0 136 24.667 184 74c33.333 33.333 55 75 65 125s15 112 15 186zM689.999 846c-42 28.667 -91.002 43.001 -147.002 43.001c-71.333 0 -132.333 -24.667 -183 -74
c-33.333 -34 -55.166 -76.833 -65.499 -128.5s-15.5 -112.5 -15.5 -182.5c0 -56.667 3.33301 -107.834 10 -153.501s20.334 -85.5 41.001 -119.5z" />
    <glyph glyph-name="ugrave" unicode="&#xf9;" horiz-adv-x="1151" 
d="M967 0l-145.999 0.000976562v113c-34.667 -40.667 -76.667 -71.667 -126 -93s-102 -32 -158 -32c-111.333 0 -198.333 31.333 -261 94c-34.667 34.667 -60.334 75.667 -77.001 123s-25 100.666 -25 159.999v643h148v-621c0 -86.667 21.667 -153 65 -199
s103.333 -69 180 -69c78 0 139.5 23.167 184.5 69.5s67.5 112.5 67.5 198.5v621h148v-1008zM669.001 1217h-135l-221 313h176z" />
    <glyph glyph-name="uacute" unicode="&#xfa;" horiz-adv-x="1151" 
d="M967 0l-145.999 0.000976562v113c-34.667 -40.667 -76.667 -71.667 -126 -93s-102 -32 -158 -32c-111.333 0 -198.333 31.333 -261 94c-34.667 34.667 -60.334 75.667 -77.001 123s-25 100.666 -25 159.999v643h148v-621c0 -86.667 21.667 -153 65 -199
s103.333 -69 180 -69c78 0 139.5 23.167 184.5 69.5s67.5 112.5 67.5 198.5v621h148v-1008zM825.001 1530l-221 -313h-135l180 313h176z" />
    <glyph glyph-name="ucircumflex" unicode="&#xfb;" horiz-adv-x="1151" 
d="M967 0l-145.999 0.000976562v113c-34.667 -40.667 -76.667 -71.667 -126 -93s-102 -32 -158 -32c-111.333 0 -198.333 31.333 -261 94c-34.667 34.667 -60.334 75.667 -77.001 123s-25 100.666 -25 159.999v643h148v-621c0 -86.667 21.667 -153 65 -199
s103.333 -69 180 -69c78 0 139.5 23.167 184.5 69.5s67.5 112.5 67.5 198.5v621h148v-1008zM895.001 1217h-142l-184 213l-184 -213h-142l256 313h140z" />
    <glyph glyph-name="udieresis" unicode="&#xfc;" horiz-adv-x="1151" 
d="M967 0l-145.999 0.000976562v113c-34.667 -40.667 -76.667 -71.667 -126 -93s-102 -32 -158 -32c-111.333 0 -198.333 31.333 -261 94c-34.667 34.667 -60.334 75.667 -77.001 123s-25 100.666 -25 159.999v643h148v-621c0 -86.667 21.667 -153 65 -199
s103.333 -69 180 -69c78 0 139.5 23.167 184.5 69.5s67.5 112.5 67.5 198.5v621h148v-1008zM878.001 1321c0 -25.333 -8.66699 -47 -26 -65s-39.333 -27 -66 -27c-25.333 0 -47 9 -65 27s-27 39.667 -27 65c0 26 9.16699 48.167 27.5 66.5s39.833 27.5 64.5 27.5
c26 0 47.833 -9.16699 65.5 -27.5s26.5 -40.5 26.5 -66.5zM444.001 1321c0 -25.333 -8.66699 -47 -26 -65s-39.333 -27 -66 -27c-25.333 0 -47 9 -65 27s-27 39.667 -27 65c0 26 9.16699 48.167 27.5 66.5s39.833 27.5 64.5 27.5c26 0 47.833 -9.16699 65.5 -27.5
s26.5 -40.5 26.5 -66.5z" />
    <glyph glyph-name="yacute" unicode="&#xfd;" horiz-adv-x="915" 
d="M893 1008l-459.001 -1252c-19.333 -52.667 -43.333 -92 -72 -118c-47.333 -46.667 -112.666 -70 -195.999 -70h-64v131h45c50 0 86 9 108 27s41.333 50.667 58 98l72 196l-362 988h159l277 -809l274 809h160zM712.999 1530l-221 -313h-135l180 313h176z" />
    <glyph glyph-name="thorn" unicode="&#xfe;" horiz-adv-x="1118" 
d="M985 504c0 -92.667 -8.83398 -175.835 -26.501 -249.502s-49.834 -133.167 -96.501 -178.5c-26 -26 -61 -47.167 -105 -63.5s-91 -24.5 -141 -24.5c-39.333 0 -75 3.83301 -107 11.5s-63.167 21.334 -93.5 41.001s-58.166 45.834 -83.499 78.501v-570h-148v1909h148v-567
c38 48.667 79.667 82.334 125 101.001s98.333 28 159 28c50 0 97 -7.83301 141 -23.5s79 -37.167 105 -64.5c46.667 -45.333 78.834 -104.833 96.501 -178.5s26.5 -156.834 26.5 -249.501zM837.999 503.999c0 118.667 -17 212.5 -51 281.5s-101 103.5 -201 103.5
c-99.333 0 -166.5 -34.833 -201.5 -104.5s-52.5 -163.167 -52.5 -280.5c0 -118 17.333 -211.667 52 -281s102 -104 202 -104s167 34.333 201 103s51 162.667 51 282z" />
    <glyph glyph-name="ydieresis" unicode="&#xff;" horiz-adv-x="915" 
d="M893 1008l-459.001 -1252c-19.333 -52.667 -43.333 -92 -72 -118c-47.333 -46.667 -112.666 -70 -195.999 -70h-64v131h45c50 0 86 9 108 27s41.333 50.667 58 98l72 196l-362 988h159l277 -809l274 809h160zM765.999 1321c0 -25.333 -8.66699 -47 -26 -65
s-39.333 -27 -66 -27c-25.333 0 -47 9 -65 27s-27 39.667 -27 65c0 26 9.16699 48.167 27.5 66.5s39.833 27.5 64.5 27.5c26 0 47.833 -9.16699 65.5 -27.5s26.5 -40.5 26.5 -66.5zM331.999 1321c0 -25.333 -8.66699 -47 -26 -65s-39.333 -27 -66 -27
c-25.333 0 -47 9 -65 27s-27 39.667 -27 65c0 26 9.16699 48.167 27.5 66.5s39.833 27.5 64.5 27.5c26 0 47.833 -9.16699 65.5 -27.5s26.5 -40.5 26.5 -66.5z" />
    <glyph glyph-name="OE" unicode="&#x152;" horiz-adv-x="2025" 
d="M1911 0l-893.001 -0.000976562v152c-44 -53.333 -96.667 -94 -158 -122s-126.666 -42 -195.999 -42c-146.667 0 -270.334 50.333 -371.001 151c-33.333 34.667 -59.166 70.167 -77.499 106.5s-31.833 77.5 -40.5 123.5s-14 93.5 -16 142.5s-3 121.5 -3 217.5
c0 124.667 2.33301 217.834 7 279.501s16.667 118 36 169s50.666 98.167 93.999 141.5c100.667 100.667 224.334 151 371.001 151c73.333 0 139.5 -13.5 198.5 -40.5s110.833 -67.833 155.5 -122.5v151h889v-137h-733c0 -74 0.166992 -136 0.5 -186l1 -150
c0.333008 -50 0.5 -111.333 0.5 -184h622v-131h-622c0 -116 -0.166992 -211.667 -0.5 -287s-0.833008 -157.333 -1.5 -246h737v-137zM1018 728.999c0 109.333 -2.16797 193.17 -6.50098 251.503s-13.5 106.5 -27.5 144.5s-36 72 -66 102c-32.667 33.333 -71 59 -115 77
s-89.667 27 -137 27c-48 0 -93.833 -8.83301 -137.5 -26.5s-81.834 -43.5 -114.501 -77.5c-44.667 -46 -73 -100.833 -85 -164.5s-18 -174.834 -18 -333.501c0 -158 6 -268.833 18 -332.5s40.333 -118.834 85 -165.501c32.667 -32.667 70.834 -58.167 114.501 -76.5
s89.5 -27.5 137.5 -27.5c47.333 0 93 9.16699 137 27.5s82.333 43.833 115 76.5c30.667 32 52.834 66.5 66.501 103.5s22.667 84.667 27 143s6.5 142.166 6.5 251.499z" />
    <glyph glyph-name="oe" unicode="&#x153;" horiz-adv-x="1763" 
d="M1634 465l-680.001 0.00195312c0 -110.667 25.833 -196.334 77.5 -257.001s124.834 -91 219.501 -91c56 0 103.667 8.66699 143 26s80 46.666 122 87.999l100 -88c-35.333 -35.333 -70.5 -64.333 -105.5 -87s-73.833 -39.667 -116.5 -51s-91.667 -17 -147 -17
c-170 0 -290.667 64.667 -362 194c-32 -61.333 -78.167 -109 -138.5 -143s-128.166 -51 -203.499 -51c-115.333 0 -211.666 38 -288.999 114c-32.667 33.333 -58 70.666 -76 111.999s-30.333 85.333 -37 132s-10 99.334 -10 158.001c0 88.667 8.66699 165.5 26 230.5
s49.666 121.833 96.999 170.5c76.667 76.667 173 115 289 115c50 0 97.167 -7.66699 141.5 -23s84.166 -38 119.499 -68s63 -64.667 83 -104c68.667 130 180 195 334 195c85.333 0 159.333 -19.833 222 -59.5s110.167 -96.5 142.5 -170.5s48.5 -160 48.5 -258v-67z
M1489 575.002c-2 43.333 -5.16895 75.833 -9.50195 97.5s-12.166 45.167 -23.499 70.5c-18.667 46 -49.5 82.833 -92.5 110.5s-90.5 41.5 -142.5 41.5c-52.667 0 -100.167 -13.5 -142.5 -40.5s-73.5 -64.167 -93.5 -111.5c-17.333 -43.333 -27.666 -99.333 -30.999 -168h535
zM806.997 504.002c0 73.333 -5.16797 135.332 -15.501 185.999s-31.833 92.334 -64.5 125.001c-49.333 49.333 -110.666 74 -183.999 74c-71.333 0 -132.333 -24.667 -183 -74c-33.333 -34 -55.166 -76.833 -65.499 -128.5s-15.5 -112.5 -15.5 -182.5
c0 -70.667 5.16699 -131.667 15.5 -183s32.166 -94 65.499 -128c49.333 -49.333 110.333 -74 183 -74c74.667 0 136 24.667 184 74c33.333 33.333 55 75 65 125s15 112 15 186z" />
    <glyph glyph-name="Scaron" unicode="&#x160;" horiz-adv-x="1204" 
d="M1090 401c0 -84 -20.835 -157.174 -62.502 -219.507s-100.334 -110.166 -176.001 -143.499s-164.167 -50 -265.5 -50c-73.333 0 -139 6.5 -197 19.5s-111.5 33.5 -160.5 61.5s-96.5 65 -142.5 111l107 107c39.333 -39.333 79 -70.833 119 -94.5s82.167 -40.5 126.5 -50.5
s94.833 -15 151.5 -15c107.333 0 191.5 24 252.5 72s91.5 114 91.5 198c0 38 -6 73.333 -18 106s-29.333 58.334 -52 77.001c-22 20 -45.667 34.5 -71 43.5s-65 17.5 -119 25.5l-170 27c-116 18.667 -205.333 55.334 -268 110.001c-74 66 -111 157 -111 273
c0 80.667 18.667 152.334 56 215.001s91.5 111 162.5 145s153.833 51 248.5 51c92 0 171.5 -12.167 238.5 -36.5s132.167 -65.166 195.5 -122.499l-100 -101c-46 42 -95.833 73.333 -149.5 94s-117.167 31 -190.5 31c-63.333 0 -118.166 -11.167 -164.499 -33.5
s-81.666 -53.666 -105.999 -93.999s-36.5 -87.833 -36.5 -142.5c0 -74.667 21.667 -130.667 65 -168c46 -40 111.667 -66.667 197 -80l159 -24c64 -9.33301 116.833 -22.166 158.5 -38.499s77.834 -37.833 108.501 -64.5c82 -68.667 123 -165 123 -289zM917.998 1912.99
l-256 -313h-140l-256 313h142l184 -215l184 215h142z" />
    <glyph glyph-name="scaron" unicode="&#x161;" horiz-adv-x="1016" 
d="M911 295c0 -64 -17.001 -119.001 -51.001 -165.001s-81.667 -81.167 -143 -105.5s-133 -36.5 -215 -36.5c-87.333 0 -164.666 11.333 -231.999 34s-128 59.667 -182 111l98 98c73.333 -77.333 178 -116 314 -116c84 0 149.667 15 197 45s71 74.333 71 133
c0 44 -13.5 78.333 -40.5 103s-69.5 39.334 -127.5 44.001l-166 15c-200.667 16.667 -301 106.667 -301 270c0 90.667 34.5 162.5 103.5 215.5s158.167 79.5 267.5 79.5c72.667 0 140.334 -9.16699 203.001 -27.5s115.667 -45.5 159 -81.5l-96 -96
c-70 53.333 -159.333 80 -268 80c-72.667 0 -128.5 -14.667 -167.5 -44s-58.5 -70 -58.5 -122c0 -88.667 59 -137.667 177 -147l161 -15c95.333 -8.66699 168.666 -34 219.999 -76s77 -107.333 77 -196zM829.999 1530l-256 -313h-140l-256 313h142l184 -215l184 215h142z
" />
    <glyph glyph-name="Ydieresis" unicode="&#x178;" horiz-adv-x="1053" 
d="M1036 1458l-430 -856v-602h-155v602l-435 856h168l344 -698l340 698h168zM835 1704c0 -25.333 -8.66699 -47 -26 -65s-39.333 -27 -66 -27c-25.333 0 -47 9 -65 27s-27 39.667 -27 65c0 26 9.16699 48.167 27.5 66.5s39.833 27.5 64.5 27.5
c26 0 47.833 -9.16699 65.5 -27.5s26.5 -40.5 26.5 -66.5zM401 1704c0 -25.333 -8.66699 -47 -26 -65s-39.333 -27 -66 -27c-25.333 0 -47 9 -65 27s-27 39.667 -27 65c0 26 9.16699 48.167 27.5 66.5s39.833 27.5 64.5 27.5c26 0 47.833 -9.16699 65.5 -27.5
s26.5 -40.5 26.5 -66.5z" />
    <glyph glyph-name="florin" unicode="&#x192;" horiz-adv-x="825" 
d="M764 1335l-102 -0.000976562c-90.667 0 -144.667 -49 -162 -147l-70 -402h215v-110h-235l-199 -1127h-148l199 1127h-201v110h222l69 406c14.667 78.667 48.667 143.334 102 194.001s121 76 203 76h107v-127z" />
    <glyph glyph-name="circumflex" unicode="&#x2c6;" horiz-adv-x="1024" 
d="M838 1217h-142l-184 213l-184 -213h-142l256 313h140z" />
    <glyph glyph-name="tilde" unicode="&#x2dc;" horiz-adv-x="1024" 
d="M834 1350c-70 -70 -134.999 -105.001 -194.999 -105.001c-25.333 0 -48.333 3.66699 -69 11s-46 19.333 -76 36c-48.667 28.667 -87 43 -115 43c-19.333 0 -37.333 -3.83301 -54 -11.5s-39 -25.5 -67 -53.5l-76 73c42 42.667 77.5 70.834 106.5 84.501
s58.5 20.5 88.5 20.5c28.667 0 53.5 -4 74.5 -12s44.5 -20.333 70.5 -37c43.333 -27.333 81.666 -41 114.999 -41c36.667 0 77 21.667 121 65z" />
    <glyph glyph-name="emdash" unicode="&#x2013;" horiz-adv-x="1069" 
d="M963 483h-857v138h857v-138z" />
    <glyph glyph-name="endash" unicode="&#x2014;" horiz-adv-x="1872" 
d="M1716 483h-1560v140h1560v-140z" />
    <glyph glyph-name="quoteleft" unicode="&#x2018;" horiz-adv-x="539" 
d="M358 1286h-178v172l178 162v-334z" />
    <glyph glyph-name="quoteright" unicode="&#x2019;" horiz-adv-x="539" 
d="M358 1286l-178 -162v334h178v-172z" />
    <glyph glyph-name="quotesinglbase" unicode="&#x201a;" horiz-adv-x="539" 
d="M358 0l-178 -162v334h178v-172z" />
    <glyph glyph-name="quotedblleft" unicode="&#x201c;" horiz-adv-x="889" 
d="M709 1286h-181v172l181 162v-334zM358 1286h-178v172l178 162v-334z" />
    <glyph glyph-name="quotedblright" unicode="&#x201d;" horiz-adv-x="889" 
d="M709 1286l-181 -162v334h181v-172zM358 1286l-178 -162v334h178v-172z" />
    <glyph glyph-name="quotedblbase" unicode="&#x201e;" horiz-adv-x="889" 
d="M709 0l-181 -162v334h181v-172zM358 0l-178 -162v334h178v-172z" />
    <glyph glyph-name="dagger" unicode="&#x2020;" horiz-adv-x="1239" 
d="M1087 911h-397v-911h-147v911h-391v131h391v416h147v-416h397v-131z" />
    <glyph glyph-name="daggerdbl" unicode="&#x2021;" horiz-adv-x="1239" 
d="M1087 -33h-397v-418h-147v418h-391v131h391v813h-391v131h391v416h147v-416h397v-131h-397v-813h397v-131z" />
    <glyph glyph-name="bullet" unicode="&#x2022;" horiz-adv-x="1090" 
d="M879 684c0 -46 -8.66797 -89.1689 -26.001 -129.502s-41.166 -75.666 -71.499 -105.999s-66.333 -54.333 -108 -72s-84.5 -26.5 -128.5 -26.5c-92 0 -170.667 32.667 -236 98s-98 144 -98 236c0 60 15 115.833 45 167.5s70.833 92.334 122.5 122.001
s107.167 44.5 166.5 44.5c46 0 89.5 -8.66699 130.5 -26s76.5 -41 106.5 -71s53.667 -65.5 71 -106.5s26 -84.5 26 -130.5z" />
    <glyph glyph-name="ellipsis" unicode="&#x2026;" horiz-adv-x="1550" 
d="M1386 111c0 -31.333 -11.335 -58.6641 -34.002 -81.9971s-50 -35 -82 -35c-31.333 0 -58.666 11.667 -81.999 35s-35 50.666 -35 81.999c0 32 11.667 59.333 35 82s50.666 34 81.999 34c20.667 0 39.834 -5.33301 57.501 -16s31.834 -24.834 42.501 -42.501
s16 -36.834 16 -57.501zM890.998 111.002c0 -32 -11.5 -59.501 -34.5 -82.501s-50.5 -34.5 -82.5 -34.5s-59.5 11.833 -82.5 35.5s-34.5 50.834 -34.5 81.501c0 31.333 11.5 58.5 34.5 81.5s50.5 34.5 82.5 34.5s59.5 -11.167 82.5 -33.5s34.5 -49.833 34.5 -82.5z
M394.998 111.001c0 -31.333 -11.335 -58.6641 -34.002 -81.9971s-50 -35 -82 -35c-31.333 0 -58.666 11.667 -81.999 35s-35 50.666 -35 81.999c0 32 11.667 59.333 35 82s50.666 34 81.999 34c20.667 0 39.834 -5.33301 57.501 -16s31.834 -24.834 42.501 -42.501
s16 -36.834 16 -57.501z" />
    <glyph glyph-name="perthousand" unicode="&#x2030;" horiz-adv-x="2415" 
d="M2284 262c0 -82.667 -26.166 -149.332 -78.499 -199.999s-118.5 -76 -198.5 -76c-52.667 0 -100 11.333 -142 34s-74.833 55 -98.5 97s-35.5 90.333 -35.5 145v215c0 42 6.66699 79.667 20 113s32.666 62.666 57.999 87.999s54.833 44.333 88.5 57s70.167 19 109.5 19
c80 0 146.167 -25.5 198.5 -76.5s78.5 -117.833 78.5 -200.5v-215zM1575 262.002c0 -82.667 -26.166 -149.332 -78.499 -199.999s-118.5 -76 -198.5 -76c-52.667 0 -100 11.333 -142 34s-74.833 55 -98.5 97s-35.5 90.333 -35.5 145v215c0 42 6.66699 79.667 20 113
s32.666 62.666 57.999 87.999s55 44.333 89 57s70.333 19 109 19c80 0 146.167 -25.5 198.5 -76.5s78.5 -117.833 78.5 -200.5v-215zM1257 1458l-684 -1458h-122l684 1458h122zM686.002 981.004c0 -81.333 -26.001 -147.333 -78.001 -198s-118 -76 -198 -76
c-80.667 0 -147 25.167 -199 75.5s-78 116.5 -78 198.5v215c0 54.667 11.833 103 35.5 145s56.5 74.5 98.5 97.5s89.667 34.5 143 34.5c80.667 0 146.834 -25.5 198.501 -76.5s77.5 -117.833 77.5 -200.5v-215zM2167 266.004v207c0 56.667 -13 100.5 -39 131.5
s-66.333 46.5 -121 46.5c-106.667 0 -160 -59.333 -160 -178v-207c0 -118.667 53.333 -178 160 -178c54 0 94.167 15.667 120.5 47s39.5 75 39.5 131zM1458 266.004v207c0 56.667 -13 100.5 -39 131.5s-66.333 46.5 -121 46.5c-106 0 -159 -59.333 -159 -178v-207
c0 -118.667 53 -178 159 -178c54 0 94.167 15.667 120.5 47s39.5 75 39.5 131zM569.001 985.004v207c0 56.667 -13 100.5 -39 131.5s-66 46.5 -120 46.5c-106.667 0 -160 -59.333 -160 -178v-207c0 -117.333 53.333 -176 160 -176c54 0 94 15.333 120 46s39 74 39 130z" />
    <glyph glyph-name="guilsinglleft" unicode="&#x2039;" horiz-adv-x="672" 
d="M512 119l-430 430l430 430v-184l-246 -246l246 -248v-182z" />
    <glyph glyph-name="guilsinglright" unicode="&#x203a;" horiz-adv-x="672" 
d="M590 549l-430 -430v182l248 248l-248 246v184z" />
    <glyph glyph-name="trademark" unicode="&#x2122;" horiz-adv-x="1718" 
d="M1599 584h-116v630l-209 -413h-115l-209 413v-630h-119v874h119l267 -530l266 530h116v-874zM678 1350h-244v-766h-119v766h-241v108h604v-108z" />
    <glyph glyph-name="periodcentered" unicode="&#x2219;" horiz-adv-x="557" 
d="M395 547c0 -31.333 -11.333 -58.666 -34 -81.999s-50 -35 -82 -35c-31.333 0 -58.666 11.667 -81.999 35s-35 50.666 -35 81.999s11.667 58.333 35 81s50.666 34 81.999 34c20.667 0 40 -5.33301 58 -16s32.167 -24.667 42.5 -42s15.5 -36.333 15.5 -57z" />
    <glyph glyph-name=".null" horiz-adv-x="0" 
 />
    <glyph glyph-name="nonmarkingreturn" horiz-adv-x="0" 
 />
    <glyph glyph-name="Lslash" horiz-adv-x="1192" 
d="M1130 0h-901v592l-149 -94v137l149 94v729h158v-631l315 201v-135l-315 -201v-553h743v-139z" />
    <glyph glyph-name="lslash" horiz-adv-x="645" 
d="M569 0l-105.999 -0.000976562c-56.667 0 -104.334 11.5 -143.001 34.5s-67.5 54.667 -86.5 95s-28.5 86.5 -28.5 138.5v432l-129 -79v127l129 79v631h147v-540l166 102v-127l-166 -102v-517c0 -51.333 10 -88.666 30 -111.999s55 -35 105 -35h82v-127z" />
    <glyph glyph-name="Zcaron" horiz-adv-x="1139" 
d="M1022 0h-905v147l729 1172h-701v139h877v-131l-735 -1188h735v-139zM908 1913l-256 -313h-140l-256 313h142l184 -215l184 215h142z" />
    <glyph glyph-name="zcaron" horiz-adv-x="940" 
d="M834 0h-732v127l562 750h-531v131h701v-125l-564 -752h564v-131zM809 1530l-256 -313h-140l-256 313h142l184 -215l184 215h142z" />
    <glyph glyph-name="notequal" horiz-adv-x="1100" 
d="M993 309h-581l-211 -227l-95 82l138 145h-138v135h259l202 211h-461v138h582l213 227l92 -84l-137 -143h137v-138h-258l-200 -211h458v-135z" />
    <glyph glyph-name="infinity" horiz-adv-x="1655" 
d="M1516 547c0 -61.333 -13.3311 -116.834 -39.998 -166.501s-64.834 -88.667 -114.501 -117s-106.167 -42.5 -169.5 -42.5c-47.333 0 -91 7.5 -131 22.5s-78.667 37.833 -116 68.5s-76.666 71.334 -117.999 122.001c-61.333 -74.667 -120 -129.167 -176 -163.5
s-118 -51.5 -186 -51.5c-64.667 0 -121.834 14.333 -171.501 43s-88.167 67.834 -115.5 117.501s-41 105.5 -41 167.5s13.667 117.833 41 167.5s65.833 88.667 115.5 117s106.834 42.5 171.501 42.5c44 0 86.167 -7.83301 126.5 -23.5s79 -38.667 116 -69
s76.833 -71.833 119.5 -124.5c63.333 76.667 122.666 132 177.999 166s117.666 51 186.999 51c64 0 120.667 -14.333 170 -43s87.333 -67.834 114 -117.501s40 -105.167 40 -166.5zM1374 544.999c0 58 -17.5029 104.165 -52.5029 138.498s-80.167 51.5 -135.5 51.5
c-32.667 0 -63.167 -7.66699 -91.5 -23s-55.666 -36.166 -81.999 -62.499s-57.166 -61.166 -92.499 -104.499c35.333 -43.333 66.333 -78.333 93 -105s53.834 -47.667 81.501 -63s58.167 -23 91.5 -23c55.333 0 100.5 17.5 135.5 52.5s52.5 81.167 52.5 138.5z
M732.999 544.997c-56 68 -102.332 117.001 -138.999 147.001s-78.334 45 -125.001 45c-35.333 0 -67.833 -8 -97.5 -24s-52.5 -38.833 -68.5 -68.5s-24 -62.834 -24 -99.501s8 -69.667 24 -99s38.333 -52 67 -68s61.667 -24 99 -24c46 0 87.5 14.833 124.5 44.5
s83.5 78.5 139.5 146.5z" />
    <glyph glyph-name="lessequal" horiz-adv-x="2103" 
d="M1765 1114l-1140 -1143l1054 2l-135 -135h-1155v1155l135 137l-2 -1056l1143 1140z" />
    <glyph glyph-name="greaterequal" horiz-adv-x="2103" 
d="M1714 -162h-1155l-135 135l1055 -2l-1141 1143l100 100l1143 -1140l-2 1056l135 -137v-1155z" />
    <glyph glyph-name="partialdiff" horiz-adv-x="1114" 
d="M928 500c0 -87.333 -8.16602 -163.834 -24.499 -229.501s-47.166 -122.5 -92.499 -170.5c-71.333 -74.667 -164.333 -112 -279 -112c-57.333 0 -109.833 9.83301 -157.5 29.5s-88.5 47.167 -122.5 82.5c-29.333 30.667 -53.166 67.334 -71.499 110.001
s-30.5 87.5 -36.5 134.5s-9 98.833 -9 155.5c0 92.667 8.16699 171.834 24.5 237.501s47.166 121.5 92.499 167.5c31.333 32 69.666 58.167 114.999 78.5s95.666 30.5 150.999 30.5c53.333 0 101 -8.5 143 -25.5s81.667 -48.167 119 -93.5v143
c0 55.333 -9.66699 106.333 -29 153s-49.833 83.667 -91.5 111s-93.5 41 -155.5 41c-53.333 0 -96.333 -7.5 -129 -22.5s-70.334 -41.5 -113.001 -79.5l-94 94c36 33.333 70.167 59.666 102.5 78.999s67.333 33.5 105 42.5s81.834 13.5 132.501 13.5
c134 0 237.5 -39.833 310.5 -119.5s109.5 -187.167 109.5 -322.5v-528zM780.001 499.999c0 73.333 -4.83105 135 -14.498 185s-29.834 91.333 -60.501 124c-22.667 23.333 -49 41.5 -79 54.5s-61.333 19.5 -94 19.5c-68.667 0 -126.667 -24.667 -174 -74
c-30.667 -34 -50.834 -76.667 -60.501 -128s-14.5 -111.666 -14.5 -180.999s4.66699 -129.333 14 -180s29.666 -93 60.999 -127c46 -49.333 104 -74 174 -74c68 0 125.667 24.667 173 74c30.667 32.667 50.834 73.667 60.501 123s14.5 110.666 14.5 183.999z" />
    <glyph glyph-name="summation" horiz-adv-x="1128" 
d="M1024 -451h-907v134l413 897l-411 845v131h903v-139h-723l369 -768v-141l-373 -819h729v-140z" />
    <glyph glyph-name="product" horiz-adv-x="1425" 
d="M1214 -451h-155v1868h-692v-1868h-156v2007h1003v-2007z" />
    <glyph glyph-name="pi" horiz-adv-x="1210" 
d="M1004 0h-142v874h-512v-874h-143v1008h797v-1008z" />
    <glyph glyph-name="integral" horiz-adv-x="762" 
d="M684 1337l-78.001 -0.000976562c-49.333 0 -86.5 -13.5 -111.5 -40.5s-37.5 -65.833 -37.5 -116.5v-1340c0 -44.667 -6 -84 -18 -118s-29.833 -63.5 -53.5 -88.5s-53.167 -44.5 -88.5 -58.5s-75 -21 -119 -21h-102v127h80c49.333 0 86.5 13.5 111.5 40.5
s37.5 65.833 37.5 116.5v1340c0 58.667 11 109.334 33 152.001s53.833 75.667 95.5 99s91.834 35 150.501 35h100v-127z" />
    <glyph glyph-name="Omega" horiz-adv-x="1331" 
d="M1176 0l-400 0.00292969v131c87.333 41.333 150.333 93.333 189 156c22 35.333 36.333 84.666 43 147.999s10 160 10 290c0 111.333 -2.16699 196.166 -6.5 254.499s-13.5 106.5 -27.5 144.5s-36 72.333 -66 103c-33.333 33.333 -71.666 59 -114.999 77s-89 27 -137 27
c-47.333 0 -92.666 -8.83301 -135.999 -26.5s-82 -43.5 -116 -77.5c-29.333 -30 -51.5 -64.333 -66.5 -103s-24.833 -86.667 -29.5 -144s-7 -142.333 -7 -255c0 -81.333 1.5 -149.333 4.5 -204s8.66699 -101.667 17 -141s19.833 -70.333 34.5 -93
c22.667 -36 48.667 -65.667 78 -89s66 -45.666 110 -66.999v-131h-399v137h168c-48.667 39.333 -86.334 85 -113.001 137c-16 33.333 -28.333 74.333 -37 123s-13.834 97.5 -15.501 146.5s-2.5 110.833 -2.5 185.5c0 124.667 2.16699 217.834 6.5 279.501
s16.166 117.834 35.499 168.501s51 98 95 142c100.667 100.667 225 151 373 151c147.333 0 271.333 -50.333 372 -151c43.333 -42 75 -88.833 95 -140.5s32.167 -108.334 36.5 -170.001s6.5 -154.834 6.5 -279.501c0 -74.667 -0.833008 -136.167 -2.5 -184.5
s-6.66699 -96.833 -15 -145.5s-21.166 -90.334 -38.499 -125.001c-24 -48.667 -62 -94.334 -114 -137.001h170v-137z" />
    <glyph glyph-name="radical" horiz-adv-x="1151" 
d="M1090 1319h-183l-432 -1319h-125l-334 1008h162l236 -729l377 1179h299v-139z" />
    <glyph glyph-name="approxequal" horiz-adv-x="1104" 
d="M1004 750c-54.667 -54.667 -100.333 -91.668 -137 -111.001s-79.334 -29 -128.001 -29c-30.667 0 -60.334 4.83301 -89.001 14.5s-71.334 26.834 -128.001 51.501c-36 16.667 -65 28.667 -87 36s-46.333 11 -73 11c-31.333 0 -58.166 -5.33301 -80.499 -16
s-52.833 -35.334 -91.5 -74.001l-90 90c56 56 102 93.5 138 112.5s78.333 28.5 127 28.5c33.333 0 65.833 -5.5 97.5 -16.5s70.834 -27.167 117.501 -48.5c66 -31.333 119 -47 159 -47c22 0 40.667 2 56 6s32.333 12.833 51 26.5s40.334 32.834 65.001 57.501zM1004 386.999
c-54.667 -54.667 -100.499 -91.502 -137.499 -110.502s-79.5 -28.5 -127.5 -28.5c-31.333 0 -62.833 5 -94.5 15s-72.5 26 -122.5 48c-31.333 15.333 -58.833 27.333 -82.5 36s-48.5 13 -74.5 13c-30.667 0 -57.334 -5.66699 -80.001 -17s-53.334 -36.333 -92.001 -75
l-93 92c36.667 36.667 69.167 65.334 97.5 86.001s55.333 34.834 81 42.501s54.5 11.5 86.5 11.5c32.667 0 65.167 -5.16699 97.5 -15.5s72.166 -26.5 119.499 -48.5c42 -18.667 72.833 -31.5 92.5 -38.5s41.167 -10.5 64.5 -10.5c30.667 0 57.334 5.66699 80.001 17
s53.334 36.333 92.001 75z" />
    <glyph glyph-name="Delta" horiz-adv-x="1235" 
d="M1217 0h-1201l537 1458h129zM1014 135l-396 1100l-397 -1100h793z" />
    <glyph glyph-name="lozenge" horiz-adv-x="1329" 
d="M1192 721l-526 -746l-529 746l529 745zM1026 721l-360 518l-363 -518l363 -522z" />
    <glyph glyph-name="fraction" horiz-adv-x="379" 
d="M592 1458l-682 -1458h-123l682 1458h123z" />
    <glyph glyph-name="fi" horiz-adv-x="1147" 
d="M989 1386c0 -18 -4.49902 -34.667 -13.499 -50s-21.167 -27.5 -36.5 -36.5s-32 -13.5 -50 -13.5c-27.333 0 -51.333 10 -72 30s-31 43.333 -31 70c0 28 10.167 51.833 30.5 71.5s44.5 29.5 72.5 29.5c13.333 0 26.5 -2.66699 39.5 -8s23.667 -12.5 32 -21.5
s15.166 -19.833 20.499 -32.5s8 -25.667 8 -39zM963.001 0h-148v1001h148v-1001zM575.001 889h-217.001v-889h-147v889h-129v112h129v191c0 78 22.333 142.5 67 193.5s108.334 76.5 191.001 76.5h106v-127h-79c-92 0 -138 -49 -138 -147v-187h217v-112z" />
    <glyph glyph-name="fl" horiz-adv-x="1233" 
d="M1174 0l-106.999 -0.000976562c-56.667 0 -104.334 11.5 -143.001 34.5s-67.5 54.667 -86.5 95s-28.5 86.5 -28.5 138.5v1190h147v-1184c0 -51.333 10.333 -88.666 31 -111.999s55.667 -35 105 -35h82v-127zM578.001 888.999l-216 -0.000976562v-889h-147v889h-129v112
h129v191c0 78.667 22 143.334 66 194.001s107.333 76 190 76h107v-127h-80c-90.667 0 -136 -49 -136 -147v-187h216v-112z" />
    <glyph glyph-name="dotlessi" horiz-adv-x="518" 
d="M332 0h-148v1008h148v-1008z" />
    <glyph glyph-name="breve" horiz-adv-x="1024" 
d="M850 1489c-16.667 -190 -127.999 -285 -333.999 -285c-104 0 -185 24.167 -243 72.5s-91 119.166 -99 212.499h119c6.66699 -52 29.667 -93 69 -123s90.666 -45 153.999 -45c62.667 0 113.5 14.833 152.5 44.5s61.833 70.834 68.5 123.501h113z" />
    <glyph glyph-name="dotaccent" horiz-adv-x="1024" 
d="M594 1298h-164v152h164v-152z" />
    <glyph glyph-name="ring" horiz-adv-x="1024" 
d="M754 1407c0 -43.333 -10.999 -83.833 -32.999 -121.5s-51.333 -67.5 -88 -89.5s-77 -33 -121 -33s-84.333 11 -121 33s-66 51.833 -88 89.5s-33 78.167 -33 121.5c0 66.667 23.667 123.667 71 171s104.333 71 171 71c43.333 0 83.666 -10.667 120.999 -32
s66.833 -50.5 88.5 -87.5s32.5 -77.833 32.5 -122.5zM653.001 1407c0 38.667 -13.8311 71.5 -41.498 98.5s-60.834 40.5 -99.501 40.5s-71.834 -13.5 -99.501 -40.5s-41.5 -59.833 -41.5 -98.5c0 -38 14 -71 42 -99s61 -42 99 -42s71 14 99 42s42 61 42 99z" />
    <glyph glyph-name="hungarumlaut" horiz-adv-x="1024" 
d="M915 1530l-223 -313h-133l182 313h174zM582 1530l-222 -313h-135l183 313h174z" />
    <glyph glyph-name="ogonek" horiz-adv-x="1024" 
d="M662 -442h-160l-121 305h135z" />
    <glyph glyph-name="caron" horiz-adv-x="1024" 
d="M838 1530l-256 -313h-140l-256 313h142l184 -215l184 215h142z" />
  </font>
</defs>
</svg>
